奇异博士2[IMAX满屏版][简繁英字幕].Doctor.Strange.in.the.Multiverse.of.Madness.2022.IMAX.DSNP.WEB-DL.4k.HEVC.HDR.DDP-MyHDVV 15.34GB

版主小s 8天前 173

✔资源类型:暂未分类   ✔电影年份:2022   ✔电影地区:欧美   ✔电影分类:动作

◎标  题 奇异博士2:疯狂多元宇宙
◎译  名 奇异博士2 / 斯特兰奇博士2 / 奇异博士2:失控多重宇宙(港 / 台) / 奇异博士2: 失控多元宇宙(港) / Doctor Strange 2 / Doctor Strange: in the Multiverse of Madness
◎片  名 Doctor Strange in the Multiverse of Madness
◎年  代 2022
◎产  地 美国
◎类  别 动作 / 恐怖 / 奇幻 / 冒险
◎语  言 英语
◎上映日期 2022-05-04(中国台湾) / 2022-05-06(美国)
◎IMDb评分 7.3/10 (192714人评价)
◎IMDb链接 https://www.imdb.com/title/tt9419884/
◎豆瓣链接 https://movie.douban.com/subject/30304994/
◎片  长 126分钟
◎导  演 山姆·雷米 Sam Raimi
◎编  剧 迈克尔·沃尔德伦 Michael Waldron
       杰德·哈雷·巴特利特 Jade Halley Bartlett  
       史蒂夫·迪特寇 Steve Ditko
       斯坦·李 Stan Lee
◎演  员 本尼迪克特·康伯巴奇 Benedict Cumberbatch
       伊丽莎白·奥尔森 Elizabeth Olsen
       切瓦特·埃加福 Chiwetel Ejiofor
       本尼迪克特·王 Benedict Wong
       克索斯利尔·戈麦斯 Xochitl Gomez
       瑞秋·麦克亚当斯 Rachel McAdams
       迈克尔·斯图巴 Michael Stuhlbarg
       帕特里克·斯图尔特 Patrick Stewart
       海莉·阿特维尔 Hayley Atwell
       约翰·卡拉辛斯基 John Krasinski
       拉什纳·林奇 Lashana Lynch
       安松·蒙特 Anson Mount
       查理兹·塞隆 Charlize Theron
       希拉·阿蒂姆 Sheila Atim
       亚当·赫吉尔 Adam Hugill
       亚子·米切尔 Ako Mitchell
       杨沫沫 Momo Yeung
       丹尼尔·斯温 Daniel Swain
       多波·雷斯尼怀罗 Topo Wresniwiro
       伊登·纳森森 Eden Nathenson
       维尼·莫利 Vinny Moli
       大卫·谢 David Tse
       乔丹·亚历桑德拉 Jordan Alexandra
       迈克尔·沃尔德伦 Michael Waldron
       朱利安·希威德 Julian Hilliard
       杰特·克莱恩 Jett Klyne
       布鲁斯·坎贝尔 Bruce Campbell
       马里安·洛伦西克 Marian Lorencik
       凯文·费奇 Kevin Feige
       丹尼·艾夫曼 Danny Elfman
       格雷厄姆·丘彻亚德 Graham Churchyard

◎简  介
  充满无限未知的疯狂多元宇宙即将展开,一切皆有可能。
  1. ##### MediaInfo ######
  2. General
  3. Unique ID                                : 62546243392545121077402146662033078606 (0x2F0DF7E2E4A03BA8E2B7F6877DCB394E)
  4. Complete name                            : Doctor.Strange.in.the.Multiverse.of.Madness.2022.IMAX.Enhanced.DSNP.WEB-DL.4k.HEVC.HDR.DDP-MyHDVV.mkv
  5. Format                                   : Matroska
  6. Format version                           : Version 4
  7. File size                                : 15.3 GiB
  8. Duration                                 : 2 h 6 min
  9. Overall bit rate                         : 17.4 Mb/s
  10. Encoded date                             : UTC 2022-06-22 07:22:14
  11. Writing application                      : XthorMerge v11.12.1987 ('ViVENDi Supremacy') 64-bit
  12. Writing library                          : libebml v1.4.2 + libmatroska v1.6.4
  13. Video
  14. ID                                       : 1
  15. Format                                   : HEVC
  16. Format/Info                              : High Efficiency Video Coding
  17. Format profile                           : Main 10@L5@High
  18. HDR format                               : SMPTE ST 2086, HDR10 compatible
  19. Codec ID                                 : V_MPEGH/ISO/HEVC
  20. Duration                                 : 2 h 6 min
  21. Bit rate                                 : 16.6 Mb/s
  22. Width                                    : 3 840 pixels
  23. Height                                   : 2 160 pixels
  24. Display aspect ratio                     : 16:9
  25. Frame rate mode                          : Constant
  26. Frame rate                               : 23.976 (24000/1001/53354) FPS
  27. Color space                              : YUV
  28. Chroma subsampling                       : 4:2:0
  29. Bit depth                                : 10 bits
  30. Bits/(Pixel*Frame)                       : 0.083
  31. Stream size                              : 14.7 GiB (96%)
  32. Default                                  : No
  33. Forced                                   : No
  34. Color range                              : Limited
  35. Color primaries                          : BT.2020
  36. Transfer characteristics                 : PQ
  37. Matrix coefficients                      : BT.2020 non-constant
  38. Mastering display color primaries        : BT.2020
  39. Mastering display luminance              : min: 0.0000 cd/m2, max: 1000 cd/m2
  40. Audio
  41. ID                                       : 2
  42. Format                                   : E-AC-3 JOC
  43. Format/Info                              : Enhanced AC-3 with Joint Object Coding
  44. Commercial name                          : Dolby Digital Plus with Dolby Atmos
  45. Codec ID                                 : A_EAC3
  46. Duration                                 : 2 h 6 min
  47. Bit rate mode                            : Constant
  48. Bit rate                                 : 768 kb/s
  49. Channel(s)                               : 6 channels
  50. Channel layout                           : L R C LFE Ls Rs
  51. Sampling rate                            : 48.0 kHz
  52. Frame rate                               : 31.250 FPS (1536 SPF)
  53. Compression mode                         : Lossy
  54. Stream size                              : 695 MiB (4%)
  55. Title                                    : English
  56. Language                                 : English
  57. Service kind                             : Complete Main
  58. Default                                  : No
  59. Forced                                   : No
  60. Complexity index                         : 16
  61. Number of dynamic objects                : 15
  62. Bed channel count                        : 1 channel
  63. Bed channel configuration                : LFE
  64. Text #1
  65. ID                                       : 3
  66. Format                                   : UTF-8
  67. Codec ID                                 : S_TEXT/UTF8
  68. Codec ID/Info                            : UTF-8 Plain Text
  69. Duration                                 : 2 h 5 min
  70. Bit rate                                 : 35 b/s
  71. Count of elements                        : 1256
  72. Stream size                              : 32.3 KiB (0%)
  73. Title                                    : ?e?tina
  74. Language                                 : Czech
  75. Default                                  : No
  76. Forced                                   : No
  77. Text #2
  78. ID                                       : 4
  79. Format                                   : UTF-8
  80. Codec ID                                 : S_TEXT/UTF8
  81. Codec ID/Info                            : UTF-8 Plain Text
  82. Duration                                 : 2 h 5 min
  83. Bit rate                                 : 37 b/s
  84. Count of elements                        : 1258
  85. Stream size                              : 34.1 KiB (0%)
  86. Title                                    : íslenska
  87. Language                                 : Icelandic
  88. Default                                  : No
  89. Forced                                   : No
  90. Text #3
  91. ID                                       : 5
  92. Format                                   : UTF-8
  93. Codec ID                                 : S_TEXT/UTF8
  94. Codec ID/Info                            : UTF-8 Plain Text
  95. Duration                                 : 2 h 5 min
  96. Bit rate                                 : 36 b/s
  97. Count of elements                        : 1254
  98. Stream size                              : 33.6 KiB (0%)
  99. Title                                    : Türk?e
  100. Language                                 : Turkish
  101. Default                                  : No
  102. Forced                                   : No
  103. Text #4
  104. ID                                       : 6
  105. Format                                   : UTF-8
  106. Codec ID                                 : S_TEXT/UTF8
  107. Codec ID/Info                            : UTF-8 Plain Text
  108. Duration                                 : 2 h 5 min
  109. Bit rate                                 : 35 b/s
  110. Count of elements                        : 949
  111. Stream size                              : 32.5 KiB (0%)
  112. Title                                    : Svenska
  113. Language                                 : Swedish
  114. Default                                  : No
  115. Forced                                   : No
  116. Text #5
  117. ID                                       : 7
  118. Format                                   : UTF-8
  119. Codec ID                                 : S_TEXT/UTF8
  120. Codec ID/Info                            : UTF-8 Plain Text
  121. Duration                                 : 2 h 5 min
  122. Bit rate                                 : 37 b/s
  123. Count of elements                        : 1246
  124. Stream size                              : 34.4 KiB (0%)
  125. Title                                    : Suomi
  126. Language                                 : Finnish
  127. Default                                  : No
  128. Forced                                   : No
  129. Text #6
  130. ID                                       : 8
  131. Format                                   : UTF-8
  132. Codec ID                                 : S_TEXT/UTF8
  133. Codec ID/Info                            : UTF-8 Plain Text
  134. Duration                                 : 2 h 5 min
  135. Bit rate                                 : 32 b/s
  136. Count of elements                        : 1257
  137. Stream size                              : 29.7 KiB (0%)
  138. Title                                    : Sloven?ina
  139. Language                                 : Slovak
  140. Default                                  : No
  141. Forced                                   : No
  142. Text #7
  143. ID                                       : 9
  144. Format                                   : UTF-8
  145. Codec ID                                 : S_TEXT/UTF8
  146. Codec ID/Info                            : UTF-8 Plain Text
  147. Duration                                 : 2 h 5 min
  148. Bit rate                                 : 38 b/s
  149. Count of elements                        : 1197
  150. Stream size                              : 35.3 KiB (0%)
  151. Title                                    : Roman?
  152. Language                                 : Romanian
  153. Default                                  : No
  154. Forced                                   : No
  155. Text #8
  156. ID                                       : 10
  157. Format                                   : UTF-8
  158. Codec ID                                 : S_TEXT/UTF8
  159. Codec ID/Info                            : UTF-8 Plain Text
  160. Duration                                 : 2 h 6 min
  161. Bit rate                                 : 47 b/s
  162. Count of elements                        : 1621
  163. Stream size                              : 44.1 KiB (0%)
  164. Title                                    : Português (Brasil) [CC]
  165. Language                                 : Portuguese
  166. Default                                  : No
  167. Forced                                   : No
  168. Text #9
  169. ID                                       : 11
  170. Format                                   : UTF-8
  171. Codec ID                                 : S_TEXT/UTF8
  172. Codec ID/Info                            : UTF-8 Plain Text
  173. Duration                                 : 2 h 5 min
  174. Bit rate                                 : 36 b/s
  175. Count of elements                        : 1254
  176. Stream size                              : 33.7 KiB (0%)
  177. Title                                    : Português (Brasil)
  178. Language                                 : Portuguese
  179. Default                                  : No
  180. Forced                                   : No
  181. Text #10
  182. ID                                       : 12
  183. Format                                   : UTF-8
  184. Codec ID                                 : S_TEXT/UTF8
  185. Codec ID/Info                            : UTF-8 Plain Text
  186. Duration                                 : 2 h 6 min
  187. Bit rate                                 : 36 b/s
  188. Count of elements                        : 1246
  189. Stream size                              : 34.1 KiB (0%)
  190. Title                                    : Português
  191. Language                                 : Portuguese
  192. Default                                  : No
  193. Forced                                   : No
  194. Text #11
  195. ID                                       : 13
  196. Format                                   : UTF-8
  197. Codec ID                                 : S_TEXT/UTF8
  198. Codec ID/Info                            : UTF-8 Plain Text
  199. Duration                                 : 2 h 5 min
  200. Bit rate                                 : 30 b/s
  201. Count of elements                        : 1249
  202. Stream size                              : 28.1 KiB (0%)
  203. Title                                    : Polski
  204. Language                                 : Polish
  205. Default                                  : No
  206. Forced                                   : No
  207. Text #12
  208. ID                                       : 14
  209. Format                                   : UTF-8
  210. Codec ID                                 : S_TEXT/UTF8
  211. Codec ID/Info                            : UTF-8 Plain Text
  212. Duration                                 : 2 h 5 min
  213. Bit rate                                 : 34 b/s
  214. Count of elements                        : 1261
  215. Stream size                              : 31.3 KiB (0%)
  216. Title                                    : Norsk
  217. Language                                 : Norwegian
  218. Default                                  : No
  219. Forced                                   : No
  220. Text #13
  221. ID                                       : 15
  222. Format                                   : UTF-8
  223. Codec ID                                 : S_TEXT/UTF8
  224. Codec ID/Info                            : UTF-8 Plain Text
  225. Duration                                 : 2 h 5 min
  226. Bit rate                                 : 35 b/s
  227. Count of elements                        : 1011
  228. Stream size                              : 32.8 KiB (0%)
  229. Title                                    : Nederlands
  230. Language                                 : Dutch
  231. Default                                  : No
  232. Forced                                   : No
  233. Text #14
  234. ID                                       : 16
  235. Format                                   : UTF-8
  236. Codec ID                                 : S_TEXT/UTF8
  237. Codec ID/Info                            : UTF-8 Plain Text
  238. Duration                                 : 2 h 5 min
  239. Bit rate                                 : 33 b/s
  240. Count of elements                        : 1256
  241. Stream size                              : 30.8 KiB (0%)
  242. Title                                    : Magyar
  243. Language                                 : Hungarian
  244. Default                                  : No
  245. Forced                                   : No
  246. Text #15
  247. ID                                       : 17
  248. Format                                   : UTF-8
  249. Codec ID                                 : S_TEXT/UTF8
  250. Codec ID/Info                            : UTF-8 Plain Text
  251. Duration                                 : 2 h 5 min
  252. Bit rate                                 : 38 b/s
  253. Count of elements                        : 1255
  254. Stream size                              : 35.0 KiB (0%)
  255. Title                                    : Korean
  256. Language                                 : Korean
  257. Default                                  : No
  258. Forced                                   : No
  259. Text #16
  260. ID                                       : 18
  261. Format                                   : UTF-8
  262. Codec ID                                 : S_TEXT/UTF8
  263. Codec ID/Info                            : UTF-8 Plain Text
  264. Duration                                 : 2 h 5 min
  265. Bit rate                                 : 32 b/s
  266. Count of elements                        : 1177
  267. Stream size                              : 30.1 KiB (0%)
  268. Title                                    : Japanese
  269. Language                                 : Japanese
  270. Default                                  : No
  271. Forced                                   : No
  272. Text #17
  273. ID                                       : 19
  274. Format                                   : UTF-8
  275. Codec ID                                 : S_TEXT/UTF8
  276. Codec ID/Info                            : UTF-8 Plain Text
  277. Duration                                 : 2 h 5 min
  278. Bit rate                                 : 38 b/s
  279. Count of elements                        : 1260
  280. Stream size                              : 35.6 KiB (0%)
  281. Title                                    : Italiano
  282. Language                                 : Italian
  283. Default                                  : No
  284. Forced                                   : No
  285. Text #18
  286. ID                                       : 20
  287. Format                                   : UTF-8
  288. Codec ID                                 : S_TEXT/UTF8
  289. Codec ID/Info                            : UTF-8 Plain Text
  290. Duration                                 : 2 h 5 min
  291. Bit rate                                 : 62 b/s
  292. Count of elements                        : 1244
  293. Stream size                              : 57.4 KiB (0%)
  294. Title                                    : Greek
  295. Language                                 : Greek
  296. Default                                  : No
  297. Forced                                   : No
  298. Text #19
  299. ID                                       : 21
  300. Format                                   : UTF-8
  301. Codec ID                                 : S_TEXT/UTF8
  302. Codec ID/Info                            : UTF-8 Plain Text
  303. Duration                                 : 2 h 6 min
  304. Bit rate                                 : 43 b/s
  305. Count of elements                        : 1460
  306. Stream size                              : 40.0 KiB (0%)
  307. Title                                    : Fran?ais [CC]
  308. Language                                 : French
  309. Default                                  : No
  310. Forced                                   : No
  311. Text #20
  312. ID                                       : 22
  313. Format                                   : UTF-8
  314. Codec ID                                 : S_TEXT/UTF8
  315. Codec ID/Info                            : UTF-8 Plain Text
  316. Duration                                 : 2 h 5 min
  317. Bit rate                                 : 58 b/s
  318. Count of elements                        : 1957
  319. Stream size                              : 53.5 KiB (0%)
  320. Title                                    : Fran?ais (Canadien) [CC]
  321. Language                                 : French
  322. Default                                  : No
  323. Forced                                   : No
  324. Text #21
  325. ID                                       : 23
  326. Format                                   : UTF-8
  327. Codec ID                                 : S_TEXT/UTF8
  328. Codec ID/Info                            : UTF-8 Plain Text
  329. Duration                                 : 2 h 5 min
  330. Bit rate                                 : 40 b/s
  331. Count of elements                        : 1282
  332. Stream size                              : 37.1 KiB (0%)
  333. Title                                    : Fran?ais (Canadien)
  334. Language                                 : French
  335. Default                                  : No
  336. Forced                                   : No
  337. Text #22
  338. ID                                       : 24
  339. Format                                   : UTF-8
  340. Codec ID                                 : S_TEXT/UTF8
  341. Codec ID/Info                            : UTF-8 Plain Text
  342. Duration                                 : 2 h 5 min
  343. Bit rate                                 : 33 b/s
  344. Count of elements                        : 1165
  345. Stream size                              : 30.9 KiB (0%)
  346. Title                                    : Fran?ais
  347. Language                                 : French
  348. Default                                  : No
  349. Forced                                   : No
  350. Text #23
  351. ID                                       : 25
  352. Format                                   : UTF-8
  353. Codec ID                                 : S_TEXT/UTF8
  354. Codec ID/Info                            : UTF-8 Plain Text
  355. Duration                                 : 2 h 6 min
  356. Bit rate                                 : 38 b/s
  357. Count of elements                        : 1195
  358. Stream size                              : 35.4 KiB (0%)
  359. Title                                    : Espa?ol (Latinoamericano) [CC]
  360. Language                                 : Spanish
  361. Default                                  : No
  362. Forced                                   : No
  363. Text #24
  364. ID                                       : 26
  365. Format                                   : UTF-8
  366. Codec ID                                 : S_TEXT/UTF8
  367. Codec ID/Info                            : UTF-8 Plain Text
  368. Duration                                 : 2 h 5 min
  369. Bit rate                                 : 37 b/s
  370. Count of elements                        : 1252
  371. Stream size                              : 34.7 KiB (0%)
  372. Title                                    : Espa?ol (Latinoamericano)
  373. Language                                 : Spanish
  374. Default                                  : No
  375. Forced                                   : No
  376. Text #25
  377. ID                                       : 27
  378. Format                                   : UTF-8
  379. Codec ID                                 : S_TEXT/UTF8
  380. Codec ID/Info                            : UTF-8 Plain Text
  381. Duration                                 : 2 h 5 min
  382. Bit rate                                 : 35 b/s
  383. Count of elements                        : 1248
  384. Stream size                              : 32.5 KiB (0%)
  385. Title                                    : Espa?ol
  386. Language                                 : Spanish
  387. Default                                  : No
  388. Forced                                   : No
  389. Text #26
  390. ID                                       : 28
  391. Format                                   : UTF-8
  392. Codec ID                                 : S_TEXT/UTF8
  393. Codec ID/Info                            : UTF-8 Plain Text
  394. Duration                                 : 2 h 5 min
  395. Bit rate                                 : 50 b/s
  396. Count of elements                        : 1906
  397. Stream size                              : 46.4 KiB (0%)
  398. Title                                    : English [CC]
  399. Language                                 : English
  400. Default                                  : No
  401. Forced                                   : No
  402. Text #27
  403. ID                                       : 29
  404. Format                                   : UTF-8
  405. Codec ID                                 : S_TEXT/UTF8
  406. Codec ID/Info                            : UTF-8 Plain Text
  407. Duration                                 : 2 h 5 min
  408. Bit rate                                 : 45 b/s
  409. Count of elements                        : 1297
  410. Stream size                              : 41.7 KiB (0%)
  411. Title                                    : Deutsch [CC]
  412. Language                                 : German
  413. Default                                  : No
  414. Forced                                   : No
  415. Text #28
  416. ID                                       : 30
  417. Format                                   : UTF-8
  418. Codec ID                                 : S_TEXT/UTF8
  419. Codec ID/Info                            : UTF-8 Plain Text
  420. Duration                                 : 2 h 5 min
  421. Bit rate                                 : 34 b/s
  422. Count of elements                        : 1150
  423. Stream size                              : 31.3 KiB (0%)
  424. Title                                    : Deutsch
  425. Language                                 : German
  426. Default                                  : No
  427. Forced                                   : No
  428. Text #29
  429. ID                                       : 31
  430. Format                                   : UTF-8
  431. Codec ID                                 : S_TEXT/UTF8
  432. Codec ID/Info                            : UTF-8 Plain Text
  433. Duration                                 : 2 h 5 min
  434. Bit rate                                 : 32 b/s
  435. Count of elements                        : 815
  436. Stream size                              : 29.7 KiB (0%)
  437. Title                                    : Dansk
  438. Language                                 : Danish
  439. Default                                  : No
  440. Forced                                   : No
  441. Text #30
  442. ID                                       : 32
  443. Format                                   : UTF-8
  444. Codec ID                                 : S_TEXT/UTF8
  445. Codec ID/Info                            : UTF-8 Plain Text
  446. Duration                                 : 2 h 5 min
  447. Bit rate                                 : 30 b/s
  448. Count of elements                        : 1273
  449. Stream size                              : 27.6 KiB (0%)
  450. Title                                    : Chinese (Traditional)
  451. Language                                 : Chinese
  452. Default                                  : No
  453. Forced                                   : No
  454. Text #31
  455. ID                                       : 33
  456. Format                                   : UTF-8
  457. Codec ID                                 : S_TEXT/UTF8
  458. Codec ID/Info                            : UTF-8 Plain Text
  459. Duration                                 : 2 h 5 min
  460. Bit rate                                 : 34 b/s
  461. Count of elements                        : 1261
  462. Stream size                              : 31.6 KiB (0%)
  463. Title                                    : Chinese (Simplified)
  464. Language                                 : Chinese
  465. Default                                  : No
  466. Forced                                   : No
  467. Text #32
  468. ID                                       : 34
  469. Format                                   : UTF-8
  470. Codec ID                                 : S_TEXT/UTF8
  471. Codec ID/Info                            : UTF-8 Plain Text
  472. Duration                                 : 2 h 5 min
  473. Bit rate                                 : 30 b/s
  474. Count of elements                        : 1259
  475. Stream size                              : 27.9 KiB (0%)
  476. Title                                    : Chinese (Hong Kong)
  477. Language                                 : Chinese
  478. Default                                  : No
  479. Forced                                   : No





此处一般会放置磁力链或种子下载链接,不过此链接需要注册会员才能看到,点击“立即注册”
磁力链下载【下载链接仅对注册会员开放,登陆后可见】
BT9527电影天堂 1、BT9527电影天堂提供的BT文件均来源于互联网抓取,只供网友学习交流、技术提升使用。
2、我们遵守BitTorrent点对点协议原则,任何版权问题请联系原资源发布商,我们不处理任何版权纠纷,谢谢!如有争议请联系邮箱:BT9527#hotmail.com(#换成@)
3、如果您发现某页面或地址有错误,请联系站长邮箱BT9527#hotmail.com(#换成@),我们会尽快处理。您的热心是对BT9527电影天堂最大的支持。
4、本站建议去正规影院观看电影以支持电影行业发展。
最新回复 (0)

你可以在 登录 or 注册 后,对此帖发表评论!

返回
发新帖