奇异博士2:疯狂多元宇宙[简繁英字幕].Doctor.Strange.in.the.Multiverse.of.Madness.2022.2160p.WEB-DL.HDR.HEVC.Atmos.DDP5.1-OPT 21.99GB

版主小s 3月前 467

✔资源类型:BD-4K   ✔电影年份:2022   ✔电影地区:欧美   ✔电影分类:动作

◎标  题 奇异博士2:疯狂多元宇宙
◎译  名 奇异博士2 / 斯特兰奇博士2 / 奇异博士2:失控多重宇宙(港 / 台) / 奇异博士2: 失控多元宇宙(港) / Doctor Strange 2 / Doctor Strange: in the Multiverse of Madness
◎片  名 Doctor Strange in the Multiverse of Madness
◎年  代 2022
◎产  地 美国
◎类  别 动作 / 恐怖 / 奇幻 / 冒险
◎语  言 英语
◎上映日期 2022-05-04(中国台湾) / 2022-05-06(美国)
◎IMDb评分 7.3/10 (192714人评价)
◎IMDb链接 https://www.imdb.com/title/tt9419884/
◎豆瓣链接 https://movie.douban.com/subject/30304994/
◎片  长 126分钟
◎导  演 山姆·雷米 Sam Raimi
◎编  剧 迈克尔·沃尔德伦 Michael Waldron
       杰德·哈雷·巴特利特 Jade Halley Bartlett  
       史蒂夫·迪特寇 Steve Ditko
       斯坦·李 Stan Lee
◎演  员 本尼迪克特·康伯巴奇 Benedict Cumberbatch
       伊丽莎白·奥尔森 Elizabeth Olsen
       切瓦特·埃加福 Chiwetel Ejiofor
       本尼迪克特·王 Benedict Wong
       克索斯利尔·戈麦斯 Xochitl Gomez
       瑞秋·麦克亚当斯 Rachel McAdams
       迈克尔·斯图巴 Michael Stuhlbarg
       帕特里克·斯图尔特 Patrick Stewart
       海莉·阿特维尔 Hayley Atwell
       约翰·卡拉辛斯基 John Krasinski
       拉什纳·林奇 Lashana Lynch
       安松·蒙特 Anson Mount
       查理兹·塞隆 Charlize Theron
       希拉·阿蒂姆 Sheila Atim
       亚当·赫吉尔 Adam Hugill
       亚子·米切尔 Ako Mitchell
       杨沫沫 Momo Yeung
       丹尼尔·斯温 Daniel Swain
       多波·雷斯尼怀罗 Topo Wresniwiro
       伊登·纳森森 Eden Nathenson
       维尼·莫利 Vinny Moli
       大卫·谢 David Tse
       乔丹·亚历桑德拉 Jordan Alexandra
       迈克尔·沃尔德伦 Michael Waldron
       朱利安·希威德 Julian Hilliard
       杰特·克莱恩 Jett Klyne
       布鲁斯·坎贝尔 Bruce Campbell
       马里安·洛伦西克 Marian Lorencik
       凯文·费奇 Kevin Feige
       丹尼·艾夫曼 Danny Elfman
       格雷厄姆·丘彻亚德 Graham Churchyard

◎简  介
  充满无限未知的疯狂多元宇宙即将展开,一切皆有可能。
  1. ##### MediaInfo ######
  2. General
  3. Unique ID                                : 167256817502033190945679352298531428068 (0x7DD47DC75839C667BAFDE970033396E4)
  4. Complete name                            : Doctor.Strange.in.the.Multiverse.of.Madness.2022.2160p.WEB-DL.HDR.HEVC.Atmos.DDP5.1-OPT.mkv
  5. Format                                   : Matroska
  6. Format version                           : Version 4
  7. File size                                : 22.0 GiB
  8. Duration                                 : 2 h 6 min
  9. Overall bit rate                         : 24.9 Mb/s
  10. Movie name                               : Doctor Strange in the Multiverse of Madness
  11. Encoded date                             : UTC 2022-06-21 23:05:13
  12. Writing application                      : mkvmerge v61.0.0 ('So') 64-bit
  13. Writing library                          : libebml v1.4.2 + libmatroska v1.6.4
  14. Cover                                    : Yes
  15. Attachments                              : Cover.jpg
  16. Video
  17. ID                                       : 1
  18. Format                                   : HEVC
  19. Format/Info                              : High Efficiency Video Coding
  20. Format profile                           : Main 10@L5@High
  21. HDR format                               : SMPTE ST 2086, HDR10 compatible
  22. Codec ID                                 : V_MPEGH/ISO/HEVC
  23. Duration                                 : 2 h 6 min
  24. Bit rate                                 : 24.1 Mb/s
  25. Width                                    : 3 840 pixels
  26. Height                                   : 1 608 pixels
  27. Display aspect ratio                     : 2.40:1
  28. Frame rate mode                          : Constant
  29. Frame rate                               : 23.976 FPS
  30. Color space                              : YUV
  31. Chroma subsampling                       : 4:2:0 (Type 2)
  32. Bit depth                                : 10 bits
  33. Bits/(Pixel*Frame)                       : 0.163
  34. Stream size                              : 21.3 GiB (97%)
  35. Language                                 : English
  36. Default                                  : Yes
  37. Forced                                   : No
  38. Color range                              : Limited
  39. Color primaries                          : BT.2020
  40. Transfer characteristics                 : PQ
  41. Matrix coefficients                      : BT.2020 non-constant
  42. Mastering display color primaries        : BT.2020
  43. Mastering display luminance              : min: 0.0050 cd/m2, max: 1000 cd/m2
  44. Maximum Content Light Level              : 1478 cd/m2
  45. Maximum Frame-Average Light Level        : 916 cd/m2
  46. Audio
  47. ID                                       : 2
  48. Format                                   : E-AC-3 JOC
  49. Format/Info                              : Enhanced AC-3 with Joint Object Coding
  50. Commercial name                          : Dolby Digital Plus with Dolby Atmos
  51. Codec ID                                 : A_EAC3
  52. Duration                                 : 2 h 6 min
  53. Bit rate mode                            : Constant
  54. Bit rate                                 : 768 kb/s
  55. Channel(s)                               : 6 channels
  56. Channel layout                           : L R C LFE Ls Rs
  57. Sampling rate                            : 48.0 kHz
  58. Frame rate                               : 31.250 FPS (1536 SPF)
  59. Compression mode                         : Lossy
  60. Stream size                              : 695 MiB (3%)
  61. Language                                 : English
  62. Service kind                             : Complete Main
  63. Default                                  : Yes
  64. Forced                                   : No
  65. Complexity index                         : 16
  66. Number of dynamic objects                : 15
  67. Bed channel count                        : 1 channel
  68. Bed channel configuration                : LFE
  69. Text #1
  70. ID                                       : 3
  71. Format                                   : UTF-8
  72. Codec ID                                 : S_TEXT/UTF8
  73. Codec ID/Info                            : UTF-8 Plain Text
  74. Duration                                 : 25 min 8 s
  75. Bit rate                                 : 1 b/s
  76. Count of elements                        : 10
  77. Stream size                              : 265 Bytes (0%)
  78. Title                                    : Forced
  79. Language                                 : English
  80. Default                                  : Yes
  81. Forced                                   : Yes
  82. Text #2
  83. ID                                       : 4
  84. Format                                   : UTF-8
  85. Codec ID                                 : S_TEXT/UTF8
  86. Codec ID/Info                            : UTF-8 Plain Text
  87. Duration                                 : 2 h 5 min
  88. Bit rate                                 : 36 b/s
  89. Count of elements                        : 1249
  90. Stream size                              : 33.8 KiB (0%)
  91. Language                                 : English
  92. Default                                  : No
  93. Forced                                   : No
  94. Text #3
  95. ID                                       : 5
  96. Format                                   : UTF-8
  97. Codec ID                                 : S_TEXT/UTF8
  98. Codec ID/Info                            : UTF-8 Plain Text
  99. Duration                                 : 23 min 46 s
  100. Bit rate                                 : 61 b/s
  101. Count of elements                        : 438
  102. Stream size                              : 10.7 KiB (0%)
  103. Title                                    : SDH
  104. Language                                 : English
  105. Default                                  : No
  106. Forced                                   : No
  107. Text #4
  108. ID                                       : 6
  109. Format                                   : UTF-8
  110. Codec ID                                 : S_TEXT/UTF8
  111. Codec ID/Info                            : UTF-8 Plain Text
  112. Duration                                 : 2 h 5 min
  113. Bit rate                                 : 37 b/s
  114. Count of elements                        : 1252
  115. Stream size                              : 34.5 KiB (0%)
  116. Title                                    : Latin American
  117. Language                                 : Spanish
  118. Default                                  : No
  119. Forced                                   : No
  120. Text #5
  121. ID                                       : 7
  122. Format                                   : UTF-8
  123. Codec ID                                 : S_TEXT/UTF8
  124. Codec ID/Info                            : UTF-8 Plain Text
  125. Duration                                 : 2 h 5 min
  126. Bit rate                                 : 29 b/s
  127. Count of elements                        : 1272
  128. Stream size                              : 26.8 KiB (0%)
  129. Title                                    : 简体中字
  130. Language                                 : Chinese
  131. Default                                  : Yes
  132. Forced                                   : No
  133. Text #6
  134. ID                                       : 8
  135. Format                                   : UTF-8
  136. Codec ID                                 : S_TEXT/UTF8
  137. Codec ID/Info                            : UTF-8 Plain Text
  138. Duration                                 : 2 h 5 min
  139. Bit rate                                 : 29 b/s
  140. Count of elements                        : 1272
  141. Stream size                              : 26.8 KiB (0%)
  142. Title                                    : 繁体中字
  143. Language                                 : Chinese
  144. Default                                  : Yes
  145. Forced                                   : No
  146. Text #7
  147. ID                                       : 9
  148. Format                                   : ASS
  149. Codec ID                                 : S_TEXT/ASS
  150. Codec ID/Info                            : Advanced Sub Station Alpha
  151. Duration                                 : 2 h 5 min
  152. Bit rate                                 : 71 b/s
  153. Count of elements                        : 1272
  154. Compression mode                         : Lossless
  155. Stream size                              : 65.4 KiB (0%)
  156. Title                                    : 简体中字
  157. Language                                 : Chinese
  158. Default                                  : Yes
  159. Forced                                   : No
  160. Text #8
  161. ID                                       : 10
  162. Format                                   : ASS
  163. Codec ID                                 : S_TEXT/ASS
  164. Codec ID/Info                            : Advanced Sub Station Alpha
  165. Duration                                 : 2 h 5 min
  166. Bit rate                                 : 71 b/s
  167. Count of elements                        : 1272
  168. Compression mode                         : Lossless
  169. Stream size                              : 65.4 KiB (0%)
  170. Title                                    : 繁体中字
  171. Language                                 : Chinese
  172. Default                                  : Yes
  173. Forced                                   : No
  174. Menu
  175. 00:00:00.000                             : Chapter 01
  176. 00:03:51.398                             : Chapter 02
  177. 00:08:26.506                             : Chapter 03
  178. 00:14:19.442                             : Chapter 04
  179. 00:18:23.061                             : Chapter 05
  180. 00:24:37.602                             : Chapter 06
  181. 00:37:58.153                             : Chapter 07
  182. 00:47:15.502                             : Chapter 08
  183. 00:50:03.545                             : Chapter 09
  184. 00:55:51.059                             : Chapter 10
  185. 00:59:46.336                             : Chapter 11
  186. 01:02:19.656                             : Chapter 12
  187. 01:05:18.418                             : Chapter 13
  188. 01:07:20.790                             : Chapter 14
  189. 01:15:03.586                             : Chapter 15
  190. 01:17:01.871                             : Chapter 16
  191. 01:19:18.383                             : Chapter 17
  192. 01:23:29.342                             : Chapter 18
  193. 01:26:34.194                             : Chapter 19
  194. 01:28:51.206                             : Chapter 20
  195. 01:34:47.270                             : Chapter 21
  196. 01:37:38.650                             : Chapter 22
  197. 01:41:27.629                             : Chapter 23
  198. 01:51:03.288                             : Chapter 24
  199. 01:53:26.473                             : Chapter 25
  200. 01:55:38.855                             : Chapter 26
  201. 01:56:32.075                             : Chapter 27
  202. 01:58:48.378                             : Chapter 28
  203. 01:59:25.665                             : Chapter 29



此处一般会放置磁力链或种子下载链接,不过此链接需要注册会员才能看到,点击“立即注册”
磁力链下载【下载链接仅对注册会员开放,登陆后可见】
BT9527电影天堂 1、BT9527电影天堂提供的BT文件均来源于互联网抓取,只供网友学习交流、技术提升使用。
2、我们遵守BitTorrent点对点协议原则,任何版权问题请联系原资源发布商,我们不处理任何版权纠纷,谢谢!如有争议请联系邮箱:BT9527#hotmail.com(#换成@)
3、如果您发现某页面或地址有错误,请联系站长邮箱BT9527#hotmail.com(#换成@),我们会尽快处理。您的热心是对BT9527电影天堂最大的支持。
4、本站建议去正规影院观看电影以支持电影行业发展。
最新回复 (0)

你可以在 登录 or 注册 后,对此帖发表评论!

返回
发新帖