天才不能承受之重[中文字幕].The.Unbearable.Weight.of.Massive.Talent.2022.2160p.HDR.UHD.BluRay.TrueHD.7.1.Atmos.x265-10bit-ENTHD 14.95GB

版主小s 6天前 71

✔资源类型:BD-4K   ✔电影年份:2022   ✔电影地区:欧美   ✔电影分类:喜剧

◎标  题 天才不能承受之重
◎译  名 超重天才 / 超吉任务(台) / 丧尽癫才(港) / 天才无法承受之重 / 不能承受的天才之重
◎片  名 The Unbearable Weight of Massive Talent
◎年  代 2022
◎产  地 美国
◎类  别 喜剧 / 动作 / 惊悚 / 犯罪
◎语  言 英语
◎上映日期 2022-03-12(西南偏南电影节) / 2022-04-22(美国)
◎IMDb评分 7.4/10 (21820人评价)
◎IMDb链接 https://www.imdb.com/title/tt11291274/
◎豆瓣评分 7.2/10 (1107人评价)
◎豆瓣链接 https://movie.douban.com/subject/34890458/
◎片  长 107分钟
◎导  演 汤姆·戈米肯 Tom Gormican
◎编  剧 汤姆·戈米肯 Tom Gormican
       凯文·埃滕 Kevin Etten
◎演  员 尼古拉斯·凯奇 Nicolas Cage
       佩德罗·帕斯卡 Pedro Pascal
       蒂凡尼·哈迪斯 Tiffany Haddish
       莎朗·豪根 Sharon Horgan
       帕科·莱昂 Paco León
       尼尔·帕特里克·哈里斯 Neil Patrick Harris
       莉莉·莫·辛 Lily Mo Sheen
       亚历桑德拉·马斯特罗纳迪 Alessandra Mastronardi
       雅各布·西皮奥 Jacob Scipio
       卡特琳·万科娃 Katrin Vankova
       黛米·摩尔 Demi Moore
       安娜·麦克唐纳 Anna MacDonald
       大卫·戈登·格林 David Gordon Green
       伊克·巴里霍尔兹 Ike Barinholtz
       卢克·麦昆 Luke McQueen
       乔安娜·波宾 Joanna Bobin
       曼纽尔陶勒 Manuel Tallafé
       里卡德·巴拉达 Ricard Balada
       杰米·奥多尼斯 Jaime Ordóñez
       丽贝卡·芬奇 Rebecca Finch
       卡罗琳·博尔顿 Caroline Boulton
       比约恩·弗赖贝格 Björn Freiberg
       艾丽·简 Eli Jane
       哈里·陶乐西 Harry Taurasi
       András Korcsmáros András Korcsmáros
       尼克·威特曼 Nick Wittman
       帕科·德尔加多 Paco Delgado

◎简  介
  尼古拉斯·凯奇(Nicolas Cage)有新片了,这次他要在电影里演自己。                                       
                                    该片主角就是尼古拉斯·凯奇本人,他疯狂的渴望在昆汀·塔伦蒂诺的下部电影里得到一个角色,他经常会和自己脑海中一个90年代的自己对话,后者不断吐槽他“老是接烂片”、“再也不是当年那个电影明星”了。                                       
                                    讲述破产边缘的凯奇为了100万美元的酬劳去参加一个亿万富翁粉丝(佩德罗·帕斯卡 饰)的生日派对,但这位富豪是一个危险的毒枭。当凯奇被一名CIA特工招募后,事情发生了意想不到的转变,为了拯救自己和亲人,他被迫出演一个终生难忘的角色——尼古拉斯·凯奇,用他最具标志性和最受喜爱的银幕角色来履行自己的传奇人生。                                       
                                    《才华不能承受之重》会有多个桥段向凯奇的代表作致敬,包括《离开拉斯维加斯》(Leaving Las Vegas)、《变脸》(Face-Off)、《极速60秒》(Gone in 60 ...
  1. ##### MediaInfo ######
  2. General
  3. Unique ID                                : 75929584515942316185757370000202096412 (0x391F818C638A0CE981D3045C8C595F1C)
  4. Complete name                            : The.Unbearable.Weight.of.Massive.Talent.2022.2160p.HDR.UHD.BluRay.TrueHD.7.1.Atmos.x265-10bit-ENTHD.mkv
  5. Format                                   : Matroska
  6. Format version                           : Version 4
  7. File size                                : 15.0 GiB
  8. Duration                                 : 1 h 46 min
  9. Overall bit rate mode                    : Variable
  10. Overall bit rate                         : 20.0 Mb/s
  11. Movie name                               : The Unbearable Weight of Massive Talent
  12. Encoded date                             : UTC 2022-06-21 12:49:11
  13. Writing application                      : mkvmerge v67.0.0 ('Under Stars') 64-bit
  14. Writing library                          : libebml v1.4.2 + libmatroska v1.6.4
  15. Cover                                    : Yes
  16. Attachments                              : cover.jpg
  17. Video
  18. ID                                       : 1
  19. Format                                   : HEVC
  20. Format/Info                              : High Efficiency Video Coding
  21. Format profile                           : Main 10@L6.1@High
  22. HDR format                               : SMPTE ST 2086, HDR10 compatible
  23. Codec ID                                 : V_MPEGH/ISO/HEVC
  24. Duration                                 : 1 h 46 min
  25. Bit rate                                 : 15.4 Mb/s
  26. Width                                    : 3 840 pixels
  27. Height                                   : 1 600 pixels
  28. Display aspect ratio                     : 2.40:1
  29. Frame rate mode                          : Constant
  30. Frame rate                               : 23.976 (24000/1001/53354) FPS
  31. Color space                              : YUV
  32. Chroma subsampling                       : 4:2:0
  33. Bit depth                                : 10 bits
  34. Bits/(Pixel*Frame)                       : 0.104
  35. Stream size                              : 11.5 GiB (77%)
  36. Writing library                          : x265 - H.265/HEVC codec
  37. Default                                  : Yes
  38. Forced                                   : No
  39. Color range                              : Limited
  40. Color primaries                          : BT.2020
  41. Transfer characteristics                 : PQ
  42. Matrix coefficients                      : BT.2020 non-constant
  43. Mastering display color primaries        : BT.2020
  44. Mastering display luminance              : min: 0.0001 cd/m2, max: 1000 cd/m2
  45. Maximum Content Light Level              : 423 cd/m2
  46. Maximum Frame-Average Light Level        : 231 cd/m2
  47. Audio #1
  48. ID                                       : 2
  49. ID in the original source medium         : 4352 (0x1100)
  50. Format                                   : MLP FBA 16-ch
  51. Format/Info                              : Meridian Lossless Packing FBA with 16-channel presentation
  52. Commercial name                          : Dolby TrueHD with Dolby Atmos
  53. Codec ID                                 : A_TRUEHD
  54. Duration                                 : 1 h 46 min
  55. Bit rate mode                            : Variable
  56. Bit rate                                 : 3 900 kb/s
  57. Maximum bit rate                         : 6 912 kb/s
  58. Channel(s)                               : 8 channels
  59. Channel layout                           : L R C LFE Ls Rs Lb Rb
  60. Sampling rate                            : 48.0 kHz
  61. Frame rate                               : 1 200.000 FPS (40 SPF)
  62. Bit depth                                : 24 bits
  63. Compression mode                         : Lossless
  64. Stream size                              : 2.91 GiB (19%)
  65. Title                                    : English
  66. Language                                 : English
  67. Default                                  : Yes
  68. Forced                                   : No
  69. Original source medium                   : Blu-ray
  70. Number of dynamic objects                : 11
  71. Bed channel count                        : 1 channel
  72. Bed channel configuration                : LFE
  73. Audio #2
  74. ID                                       : 3
  75. ID in the original source medium         : 4352 (0x1100)
  76. Format                                   : AC-3
  77. Format/Info                              : Audio Coding 3
  78. Commercial name                          : Dolby Digital
  79. Codec ID                                 : A_AC3
  80. Duration                                 : 1 h 46 min
  81. Bit rate mode                            : Constant
  82. Bit rate                                 : 640 kb/s
  83. Channel(s)                               : 6 channels
  84. Channel layout                           : L R C LFE Ls Rs
  85. Sampling rate                            : 48.0 kHz
  86. Frame rate                               : 31.250 FPS (1536 SPF)
  87. Compression mode                         : Lossy
  88. Stream size                              : 489 MiB (3%)
  89. Title                                    : English
  90. Language                                 : English
  91. Service kind                             : Complete Main
  92. Default                                  : No
  93. Forced                                   : No
  94. Original source medium                   : Blu-ray
  95. Text #1
  96. ID                                       : 4
  97. ID in the original source medium         : 4768 (0x12A0)
  98. Format                                   : PGS
  99. Muxing mode                              : zlib
  100. Codec ID                                 : S_HDMV/PGS
  101. Codec ID/Info                            : Picture based subtitle format used on BDs/HD-DVDs
  102. Duration                                 : 1 h 37 min
  103. Bit rate                                 : 48.8 kb/s
  104. Count of elements                        : 3594
  105. Stream size                              : 34.0 MiB (0%)
  106. Language                                 : English
  107. Default                                  : No
  108. Forced                                   : No
  109. Original source medium                   : Blu-ray
  110. Text #2
  111. ID                                       : 5
  112. ID in the original source medium         : 4772 (0x12A4)
  113. Format                                   : PGS
  114. Muxing mode                              : zlib
  115. Codec ID                                 : S_HDMV/PGS
  116. Codec ID/Info                            : Picture based subtitle format used on BDs/HD-DVDs
  117. Duration                                 : 1 h 38 min
  118. Bit rate                                 : 36.9 kb/s
  119. Count of elements                        : 3666
  120. Stream size                              : 25.9 MiB (0%)
  121. Language                                 : Chinese
  122. Default                                  : No
  123. Forced                                   : No
  124. Original source medium                   : Blu-ray
  125. Text #3
  126. ID                                       : 6
  127. ID in the original source medium         : 4773 (0x12A5)
  128. Format                                   : PGS
  129. Muxing mode                              : zlib
  130. Codec ID                                 : S_HDMV/PGS
  131. Codec ID/Info                            : Picture based subtitle format used on BDs/HD-DVDs
  132. Duration                                 : 1 h 38 min
  133. Bit rate                                 : 38.0 kb/s
  134. Count of elements                        : 3666
  135. Stream size                              : 26.7 MiB (0%)
  136. Language                                 : Chinese
  137. Default                                  : No
  138. Forced                                   : No
  139. Original source medium                   : Blu-ray
  140. Menu
  141. 00:00:00.000                             : en:Chapter 01
  142. 00:06:52.286                             : en:Chapter 02
  143. 00:13:02.823                             : en:Chapter 03
  144. 00:18:37.157                             : en:Chapter 04
  145. 00:23:51.763                             : en:Chapter 05
  146. 00:30:58.815                             : en:Chapter 06
  147. 00:35:46.561                             : en:Chapter 07
  148. 00:44:35.005                             : en:Chapter 08
  149. 00:52:18.093                             : en:Chapter 09
  150. 00:57:09.426                             : en:Chapter 10
  151. 01:01:42.573                             : en:Chapter 11
  152. 01:07:50.816                             : en:Chapter 12
  153. 01:17:42.574                             : en:Chapter 13
  154. 01:22:12.928                             : en:Chapter 14
  155. 01:28:39.063                             : en:Chapter 15
  156. 01:35:49.785                             : en:Chapter 16



此处一般会放置磁力链或种子下载链接,不过此链接需要注册会员才能看到,点击“立即注册”
磁力链下载【下载链接仅对注册会员开放,登陆后可见】
BT9527电影天堂 1、BT9527电影天堂提供的BT文件均来源于互联网抓取,只供网友学习交流、技术提升使用。
2、我们遵守BitTorrent点对点协议原则,任何版权问题请联系原资源发布商,我们不处理任何版权纠纷,谢谢!如有争议请联系邮箱:BT9527#hotmail.com(#换成@)
3、如果您发现某页面或地址有错误,请联系站长邮箱BT9527#hotmail.com(#换成@),我们会尽快处理。您的热心是对BT9527电影天堂最大的支持。
4、本站建议去正规影院观看电影以支持电影行业发展。
最新回复 (0)

你可以在 登录 or 注册 后,对此帖发表评论!

返回