北欧人[简繁英字幕].The.Northman.2022.UHD.BluRay.2160p.TrueHD.Atmos.7.1.x265.10bit.HDR-ALT 17.83GB

版主小s 3月前 189

✔资源类型:BD-4K   ✔电影年份:2022   ✔电影地区:欧美   ✔电影分类:剧情

◎标  题 北欧人
◎译  名 北方人(台)
◎片  名 The Northman
◎年  代 2022
◎产  地 美国
◎类  别 剧情
◎语  言 英语
◎上映日期 2022-04-15(英国) / 2022-04-22(美国) / 2022-05-13(美国网络)
◎IMDb评分 7.8/10 (49652人评价)
◎IMDb链接 https://www.imdb.com/title/tt11138512/
◎豆瓣评分 7.2/10 (1035人评价)
◎豆瓣链接 https://movie.douban.com/subject/34861178/
◎片  长 140分钟
◎导  演 罗伯特·艾格斯 Robert Eggers
◎编  剧 罗伯特·艾格斯 Robert Eggers
       秀恩·西古尔德森 Sjón Sigurdsson
◎演  员 亚历山大·斯卡斯加德 Alexander Skarsgård
       妮可·基德曼 Nicole Kidman
       克拉斯·邦 Claes Bang
       伊桑·霍克 Ethan Hawke
       安雅·泰勒-乔伊 Anya Taylor-Joy
       古斯塔夫·林德 Gustav Lindh
       艾略特·罗斯 Elliott Rose
       威廉·达福 Willem Dafoe
       菲尔·马丁 Phill Martin
       埃尔达·斯卡 Eldar Skar
       欧文·弗热瑞 Olwen Fouéré
       埃德加·阿布拉姆 Edgar Abram
       杰克·加斯曼 Jack Gassmann
       英格瓦·埃盖特·西古德松 Ingvar Eggert Sigurðsson
       奥斯卡·诺瓦克 Oscar Novak
       杰克·沃尔什 Jack Walsh
       比约克 Björk
       伊恩·怀特 Ian Whyte
       凯蒂·帕廷森 Katie Pattinson
       凯特·迪基 Kate Dickie
       谢默斯·奥哈拉 Seamus O'Hara
       塔格·墨菲 Tadhg Murphy
       哈弗波·朱利尔斯·比昂森 Hafþór Júlíus Björnsson
       拉尔夫·伊内森 Ralph Ineson
       默里·麦克阿瑟 Murray McArthur
       乔恩·坎普林 Jon Campling
       迈克尔·舍费尔 Michael Schaefer
       露易丝·福特 Louise Ford
        Linda Muir

◎简  介
  一名年轻的维京王子踏上为父复仇之路。
  1. ##### MediaInfo ######
  2. General
  3. Unique ID                                : 95214196793476121308670695517784357001 (0x47A196578EEC19FBD5984BD7BBEBB889)
  4. Complete name                            : The.Northman.2022.UHD.BluRay.2160p.TrueHD.Atmos.7.1.x265.10bit.HDR-ALT.mkv
  5. Format                                   : Matroska
  6. Format version                           : Version 4
  7. File size                                : 17.8 GiB
  8. Duration                                 : 2 h 16 min
  9. Overall bit rate mode                    : Variable
  10. Overall bit rate                         : 18.6 Mb/s
  11. Encoded date                             : UTC 2022-06-21 09:43:02
  12. Writing application                      : mkvmerge v49.0.0 ('Sick Of Losing Soulmates') 64-bit
  13. Writing library                          : libebml v1.4.0 + libmatroska v1.6.1
  14. Video
  15. ID                                       : 1
  16. Format                                   : HEVC
  17. Format/Info                              : High Efficiency Video Coding
  18. Format profile                           : Main 10@L5.1@High
  19. HDR format                               : SMPTE ST 2086, HDR10 compatible
  20. Codec ID                                 : V_MPEGH/ISO/HEVC
  21. Duration                                 : 2 h 16 min
  22. Bit rate                                 : 13.0 Mb/s
  23. Width                                    : 3 840 pixels
  24. Height                                   : 1 920 pixels
  25. Display aspect ratio                     : 2.000
  26. Frame rate mode                          : Constant
  27. Frame rate                               : 23.976 (24000/1001/53354) FPS
  28. Color space                              : YUV
  29. Chroma subsampling                       : 4:2:0 (Type 2)
  30. Bit depth                                : 10 bits
  31. Bits/(Pixel*Frame)                       : 0.073
  32. Stream size                              : 12.4 GiB (70%)
  33. Title                                    : HEVC, x265Main10@L5.1@High, 24/1.001 fps @ 12967 kbps
  34. Writing library                          : x265 3.5+36-1f2c8da77:[Windows][GCC 11.2.0][64 bit] 10bit
  35. Encoding settings                        : cpuid=533541111039 / frame-threads=4 / numa-pools=16 / wpp / no-pmode / no-pme / no-psnr / no-ssim / log-level=2 / input-csp=1 / input-res=3840x1920 / interlace=0 / total-frames=196928 / level-idc=51 / high-tier=1 / uhd-bd=0 / ref=4 / no-allow-non-conformance / repeat-headers / annexb / no-aud / no-eob / no-eos / hrd / info / hash=0 / no-temporal-layers / no-open-gop / min-keyint=24 / keyint=240 / gop-lookahead=0 / bframes=8 / b-adapt=2 / b-pyramid / bframe-bias=0 / rc-lookahead=25 / lookahead-slices=0 / NTMzNTQ=uuDQuD2mJt9fsCf / scenecut=40 / no-hist-scenecut / radl=0 / no-splice / no-intra-refresh / ctu=64 / min-cu-size=8 / no-rect / no-amp / max-tu-size=32 / tu-inter-depth=3 / tu-intra-depth=3 / limit-tu=4 / rdoq-level=2 / dynamic-rd=0.00 / no-ssim-rd / signhide / no-tskip / nr-intra=0 / nr-inter=0 / no-constrained-intra / no-strong-intra-smoothing / max-merge=4 / limit-refs=1 / limit-modes / me=3 / subme=4 / merange=57 / temporal-mvp / no-frame-dup / no-hme / weightp / weightb / no-analyze-src-pics / deblock=-3:-3 / no-sao / no-sao-non-deblock / rd=6 / selective-sao=0 / no-early-skip / rskip / no-fast-intra / no-tskip-fast / no-cu-lossless / b-intra / no-splitrd-skip / rdpenalty=0 / psy-rd=2.00 / psy-rdoq=1.00 / no-rd-refine / no-lossless / cbqpoffs=-2 / crqpoffs=-2 / rc=crf / crf=19.5 / qcomp=0.65 / qpstep=4 / stats-write=0 / stats-read=0 / vbv-maxrate=160000 / vbv-bufsize=160000 / vbv-init=0.9 / min-vbv-fullness=50.0 / max-vbv-fullness=80.0 / crf-max=0.0 / crf-min=0.0 / ipratio=1.30 / pbratio=1.20 / aq-mode=3 / aq-strength=0.85 / cutree / zone-count=0 / no-strict-cbr / qg-size=32 / no-rc-grain / qpmax=69 / qpmin=0 / no-const-vbv / sar=1 / overscan=0 / videoformat=5 / range=0 / colorprim=9 / transfer=16 / colormatrix=9 / chromaloc=1 / chromaloc-top=2 / chromaloc-bottom=2 / display-window=0 / master-display=G(13250,34500)B(7500,3000)R(34000,16000)WP(15635,16450)L(10000000,1) / cll=1000,81 / min-luma=0 / max-luma=1023 / log2-max-poc-lsb=8 / vui-timing-info / vui-hrd-info / slices=1 / no-opt-qp-pps / no-opt-ref-list-length-pps / no-multi-pass-opt-rps / scenecut-bias=0.05 / hist-threshold=0.03 / no-opt-cu-delta-qp / no-aq-motion / hdr10 / hdr10-opt / no-dhdr10-opt / no-idr-recovery-sei / analysis-reuse-level=0 / analysis-save-reuse-level=0 / analysis-load-reuse-level=0 / scale-factor=0 / refine-intra=0 / refine-inter=0 / refine-mv=1 / refine-ctu-distortion=0 / no-limit-sao / ctu-info=0 / no-lowpass-dct / refine-analysis-type=0 / copy-pic=1 / max-ausize-factor=1.0 / no-dynamic-refine / no-single-sei / no-hevc-aq / no-svt / no-field / qp-adaptation-range=1.00 / scenecut-aware-qp=0conformance-window-offsets / right=0 / bottom=0 / NTMzNTQ= / decoder-max-rate=0 / no-vbv-live-multi-pass
  36. Language                                 : English
  37. Default                                  : Yes
  38. Forced                                   : No
  39. Color range                              : Limited
  40. Color primaries                          : BT.2020
  41. Transfer characteristics                 : PQ
  42. Matrix coefficients                      : BT.2020 non-constant
  43. Mastering display color primaries        : Display P3
  44. Mastering display luminance              : min: 0.0001 cd/m2, max: 1000 cd/m2
  45. Maximum Content Light Level              : 1000 cd/m2
  46. Maximum Frame-Average Light Level        : 81 cd/m2
  47. Audio #1
  48. ID                                       : 2
  49. Format                                   : MLP FBA 16-ch
  50. Format/Info                              : Meridian Lossless Packing FBA with 16-channel presentation
  51. Commercial name                          : Dolby TrueHD with Dolby Atmos
  52. Codec ID                                 : A_TRUEHD
  53. Duration                                 : 2 h 16 min
  54. Bit rate mode                            : Variable
  55. Bit rate                                 : 4 847 kb/s
  56. Maximum bit rate                         : 7 383 kb/s
  57. Channel(s)                               : 8 channels
  58. Channel layout                           : L R C LFE Ls Rs Lb Rb
  59. Sampling rate                            : 48.0 kHz
  60. Frame rate                               : 1 200.000 FPS (40 SPF)
  61. Compression mode                         : Lossless
  62. Stream size                              : 4.63 GiB (26%)
  63. Title                                    : English Dolby TrueHD 7.1 (Atmos) @ 5295 kbps
  64. Language                                 : English
  65. Default                                  : Yes
  66. Forced                                   : No
  67. Number of dynamic objects                : 11
  68. Bed channel count                        : 1 channel
  69. Bed channel configuration                : LFE
  70. Audio #2
  71. ID                                       : 3
  72. Format                                   : AC-3
  73. Format/Info                              : Audio Coding 3
  74. Commercial name                          : Dolby Digital
  75. Codec ID                                 : A_AC3
  76. Duration                                 : 2 h 16 min
  77. Bit rate mode                            : Constant
  78. Bit rate                                 : 448 kb/s
  79. Channel(s)                               : 6 channels
  80. Channel layout                           : L R C LFE Ls Rs
  81. Sampling rate                            : 48.0 kHz
  82. Frame rate                               : 31.250 FPS (1536 SPF)
  83. Compression mode                         : Lossy
  84. Stream size                              : 439 MiB (2%)
  85. Title                                    : English Dolby 5.1-EX 5.1 @ 640 kbps
  86. Language                                 : English
  87. Service kind                             : Complete Main
  88. Default                                  : No
  89. Forced                                   : No
  90. Audio #3
  91. ID                                       : 4
  92. Format                                   : AC-3
  93. Format/Info                              : Audio Coding 3
  94. Commercial name                          : Dolby Digital
  95. Codec ID                                 : A_AC3
  96. Duration                                 : 2 h 16 min
  97. Bit rate mode                            : Constant
  98. Bit rate                                 : 192 kb/s
  99. Channel(s)                               : 2 channels
  100. Channel layout                           : L R
  101. Sampling rate                            : 48.0 kHz
  102. Frame rate                               : 31.250 FPS (1536 SPF)
  103. Compression mode                         : Lossy
  104. Stream size                              : 188 MiB (1%)
  105. Title                                    : English Dolby Digital Audio 2.0 @ 192 kbps  Commentary
  106. Language                                 : English
  107. Service kind                             : Complete Main
  108. Default                                  : No
  109. Forced                                   : No
  110. Text #1
  111. ID                                       : 5
  112. Format                                   : PGS
  113. Codec ID                                 : S_HDMV/PGS
  114. Codec ID/Info                            : Picture based subtitle format used on BDs/HD-DVDs
  115. Duration                                 : 2 h 7 min
  116. Bit rate                                 : 30.2 kb/s
  117. Count of elements                        : 3098
  118. Stream size                              : 27.7 MiB (0%)
  119. Title                                    : Eng/SUP
  120. Language                                 : English
  121. Default                                  : No
  122. Forced                                   : No
  123. Text #2
  124. ID                                       : 6
  125. Format                                   : PGS
  126. Codec ID                                 : S_HDMV/PGS
  127. Codec ID/Info                            : Picture based subtitle format used on BDs/HD-DVDs
  128. Duration                                 : 2 h 7 min
  129. Bit rate                                 : 18.2 kb/s
  130. Count of elements                        : 1512
  131. Stream size                              : 16.6 MiB (0%)
  132. Title                                    : Chs/SUP  简体
  133. Language                                 : Chinese
  134. Default                                  : Yes
  135. Forced                                   : No
  136. Text #3
  137. ID                                       : 7
  138. Format                                   : PGS
  139. Codec ID                                 : S_HDMV/PGS
  140. Codec ID/Info                            : Picture based subtitle format used on BDs/HD-DVDs
  141. Duration                                 : 2 h 7 min
  142. Bit rate                                 : 19.0 kb/s
  143. Count of elements                        : 1512
  144. Stream size                              : 17.3 MiB (0%)
  145. Title                                    : Cht/SUP  繁体
  146. Language                                 : Chinese
  147. Default                                  : No
  148. Forced                                   : No
  149. Text #4
  150. ID                                       : 8
  151. Format                                   : PGS
  152. Codec ID                                 : S_HDMV/PGS
  153. Codec ID/Info                            : Picture based subtitle format used on BDs/HD-DVDs
  154. Duration                                 : 2 h 7 min
  155. Bit rate                                 : 28.4 kb/s
  156. Count of elements                        : 1515
  157. Stream size                              : 25.9 MiB (0%)
  158. Title                                    : Chs/SUP  简英双语
  159. Language                                 : Chinese
  160. Default                                  : No
  161. Forced                                   : No
  162. Text #5
  163. ID                                       : 9
  164. Format                                   : PGS
  165. Codec ID                                 : S_HDMV/PGS
  166. Codec ID/Info                            : Picture based subtitle format used on BDs/HD-DVDs
  167. Duration                                 : 2 h 7 min
  168. Bit rate                                 : 28.8 kb/s
  169. Count of elements                        : 1515
  170. Stream size                              : 26.3 MiB (0%)
  171. Title                                    : Cht/SUP  繁英双语
  172. Language                                 : Chinese
  173. Default                                  : No
  174. Forced                                   : No
  175. Menu
  176. 00:00:00.000                             : en:第 01 章
  177. 00:08:53.990                             : en:第 02 章
  178. 00:15:47.613                             : en:第 03 章
  179. 00:22:04.614                             : en:第 04 章
  180. 00:30:23.695                             : en:第 05 章
  181. 00:39:44.340                             : en:第 06 章
  182. 00:46:18.400                             : en:第 07 章
  183. 00:51:43.266                             : en:第 08 章
  184. 00:58:14.032                             : en:第 09 章
  185. 01:05:22.335                             : en:第 10 章
  186. 01:11:55.019                             : en:第 11 章
  187. 01:16:49.563                             : en:第 12 章
  188. 01:23:36.094                             : en:第 13 章
  189. 01:27:16.689                             : en:第 14 章
  190. 01:35:42.862                             : en:第 15 章
  191. 01:41:02.389                             : en:第 16 章
  192. 01:46:38.225                             : en:第 17 章
  193. 01:55:44.854                             : en:第 18 章
  194. 02:01:06.967                             : en:第 19 章
  195. 02:08:41.255                             : en:第 20 章





此处一般会放置磁力链或种子下载链接,不过此链接需要注册会员才能看到,点击“立即注册”
磁力链下载【下载链接仅对注册会员开放,登陆后可见】
BT9527电影天堂 1、BT9527电影天堂提供的BT文件均来源于互联网抓取,只供网友学习交流、技术提升使用。
2、我们遵守BitTorrent点对点协议原则,任何版权问题请联系原资源发布商,我们不处理任何版权纠纷,谢谢!如有争议请联系邮箱:BT9527#hotmail.com(#换成@)
3、如果您发现某页面或地址有错误,请联系站长邮箱BT9527#hotmail.com(#换成@),我们会尽快处理。您的热心是对BT9527电影天堂最大的支持。
4、本站建议去正规影院观看电影以支持电影行业发展。
最新回复 (0)

你可以在 登录 or 注册 后,对此帖发表评论!

返回
发新帖