迷失东京[国英多音轨/简体字幕].Lost.in.Translation.2003.1080p.BluRay.DTS.2Audio.x265-10bit-ENTHD 8.24GB

版主小s 6天前 92

✔资源类型:暂未分类   ✔电影年份:更 早   ✔电影地区:欧美   ✔电影分类:剧情

◎标  题 迷失东京
◎译  名 爱情,不用翻译(台) / 迷语东京
◎片  名 Lost in Translation
◎年  代 2003
◎产  地 美国 / 日本
◎类  别 剧情 / 爱情
◎语  言 英语 / 日语 / 德语 / 法语
◎上映日期 2003-08-29(特柳赖德电影节) / 2003-10-03(美国)
◎IMDb评分 7.7/10 (436927人评价)
◎IMDb链接 https://www.imdb.com/title/tt0335266/
◎豆瓣评分 7.7/10 (199259人评价)
◎豆瓣链接 https://movie.douban.com/subject/1291835/
◎片  长 102 分钟
◎导  演 索菲亚·科波拉 Sofia Coppola
◎编  剧 索菲亚·科波拉 Sofia Coppola
◎演  员 斯嘉丽·约翰逊 Scarlett Johansson
       比尔·默瑞 Bill Murray
       吉奥瓦尼·瑞比西 Giovanni Ribisi
       竹下明子 Akiko Takeshita
       安娜·法瑞丝 Anna Faris
       凯瑟琳·兰伯特 Catherine Lambert
       野村训市 Kunichi Nomura
       桃生亚希子 Akiko Monou
       利川裕美 Hiromi Toshikawa
       藤原浩 Hiroshi Fujiwara
       南西·斯坦纳 Nancy Steiner
       史蒂芬·野村·斯奇博 Stephen Nomura Schible
       索菲亚·科波拉 Sofia Coppola
       弗朗西斯·福特·科波拉 Francis Ford Coppola
       细野晴臣 Haruomi Hosono
       莎拉·弗拉克 Sarah Flack
       桑岛十和子 Towako Kuwashima
       K.K. 巴雷特 K.K. Barrett
       安妮·罗斯 Anne Ross
       富田真由美 Mayumi Tomita
       中西梨花 Rika Nakanishi
       南西·斯坦纳 Nancy Steiner
       莫拉格·罗斯 Morag Ross

◎标  签 文艺 / 美国 / 迷失东京 / 爱情 / ScarlettJohansson / 日本 / 美国电影 / 剧情

◎简  介
  一切源自于无处不在的寂寞。当寂寞蔓延到头顶无法呼吸,过气电视明星鲍勃·哈里斯(比尔·默瑞 Bill Murray 饰),已为人妻的夏洛特(斯嘉丽·约翰逊 Scarlett Johansson 饰),年轻貌美的电影女演员凯莉(安娜·法瑞丝 Anna Faris 饰)在机缘巧合下在东京相遇。在这个不是故乡的陌生城市里,他们在豪华旅馆邂逅,不约而同的失眠,互相 陪伴,生活一方面仿佛变的缤纷起来,另一面却逐渐走向迷失,过气明星和为人妻的夏洛特能迎接他们二人思想和关系变化的挑战吗?冲破迷失或者身陷其中,让我们一起找寻答案。
  1. ##### MediaInfo ######
  2. General
  3. Unique ID                                : 247853944959326538604034396144010197648 (0xBA76EEF621A421D7C951F023438EFA90)
  4. Complete name                            : Lost.in.Translation.2003.1080p.BluRay.DTS.2Audio.x265-10bit-ENTHD.mkv
  5. Format                                   : Matroska
  6. Format version                           : Version 4
  7. File size                                : 8.24 GiB
  8. Duration                                 : 1 h 41 min
  9. Overall bit rate                         : 11.6 Mb/s
  10. Movie name                               : Lost in Translation 2003 1080p BluRay DTS 2Audio x265-10bit-HDS
  11. Encoded date                             : UTC 2022-06-21 03:54:30
  12. Writing application                      : mkvmerge v67.0.0 ('Under Stars') 64-bit
  13. Writing library                          : libebml v1.4.2 + libmatroska v1.6.4
  14. Video
  15. ID                                       : 1
  16. Format                                   : HEVC
  17. Format/Info                              : High Efficiency Video Coding
  18. Format profile                           : Main 10@L5.1@High
  19. Codec ID                                 : V_MPEGH/ISO/HEVC
  20. Duration                                 : 1 h 41 min
  21. Bit rate                                 : 9 396 kb/s
  22. Width                                    : 1 920 pixels
  23. Height                                   : 1 080 pixels
  24. Display aspect ratio                     : 16:9
  25. Frame rate mode                          : Constant
  26. Frame rate                               : 23.976 (24000/1001/53354) FPS
  27. Color space                              : YUV
  28. Chroma subsampling                       : 4:2:0
  29. Bit depth                                : 10 bits
  30. Bits/(Pixel*Frame)                       : 0.189
  31. Stream size                              : 6.68 GiB (81%)
  32. Title                                    : venjulegt@HDSky
  33. Writing library                          : x265 - H.265/HEVC codec
  34. Default                                  : Yes
  35. Forced                                   : No
  36. Audio #1
  37. ID                                       : 2
  38. Format                                   : DTS
  39. Format/Info                              : Digital Theater Systems
  40. Codec ID                                 : A_DTS
  41. Duration                                 : 1 h 41 min
  42. Bit rate mode                            : Constant
  43. Bit rate                                 : 1 509 kb/s
  44. Channel(s)                               : 6 channels
  45. Channel layout                           : C L R Ls Rs LFE
  46. Sampling rate                            : 48.0 kHz
  47. Frame rate                               : 93.750 FPS (512 SPF)
  48. Bit depth                                : 24 bits
  49. Compression mode                         : Lossy
  50. Stream size                              : 1.07 GiB (13%)
  51. Title                                    : English
  52. Language                                 : English
  53. Default                                  : Yes
  54. Forced                                   : No
  55. Audio #2
  56. ID                                       : 3
  57. Format                                   : AC-3
  58. Format/Info                              : Audio Coding 3
  59. Commercial name                          : Dolby Digital
  60. Codec ID                                 : A_AC3
  61. Duration                                 : 1 h 41 min
  62. Bit rate mode                            : Constant
  63. Bit rate                                 : 640 kb/s
  64. Channel(s)                               : 6 channels
  65. Channel layout                           : L R C LFE Ls Rs
  66. Sampling rate                            : 48.0 kHz
  67. Frame rate                               : 31.250 FPS (1536 SPF)
  68. Compression mode                         : Lossy
  69. Stream size                              : 466 MiB (6%)
  70. Title                                    : Mandarin
  71. Language                                 : Chinese
  72. Service kind                             : Complete Main
  73. Default                                  : Yes
  74. Forced                                   : No
  75. Text #1
  76. ID                                       : 4
  77. Format                                   : PGS
  78. Muxing mode                              : zlib
  79. Codec ID                                 : S_HDMV/PGS
  80. Codec ID/Info                            : Picture based subtitle format used on BDs/HD-DVDs
  81. Duration                                 : 1 h 33 min
  82. Bit rate                                 : 14.7 kb/s
  83. Count of elements                        : 1370
  84. Stream size                              : 9.84 MiB (0%)
  85. Title                                    : CHS
  86. Language                                 : Chinese
  87. Default                                  : Yes
  88. Forced                                   : No
  89. Text #2
  90. ID                                       : 5
  91. Format                                   : PGS
  92. Muxing mode                              : zlib
  93. Codec ID                                 : S_HDMV/PGS
  94. Codec ID/Info                            : Picture based subtitle format used on BDs/HD-DVDs
  95. Duration                                 : 1 h 38 min
  96. Bit rate                                 : 32.4 kb/s
  97. Count of elements                        : 1988
  98. Stream size                              : 22.8 MiB (0%)
  99. Title                                    : CHS
  100. Language                                 : Chinese
  101. Default                                  : Yes
  102. Forced                                   : No
  103. Text #3
  104. ID                                       : 6
  105. Format                                   : PGS
  106. Muxing mode                              : zlib
  107. Codec ID                                 : S_HDMV/PGS
  108. Codec ID/Info                            : Picture based subtitle format used on BDs/HD-DVDs
  109. Duration                                 : 1 h 33 min
  110. Bit rate                                 : 15.6 kb/s
  111. Count of elements                        : 1370
  112. Stream size                              : 10.5 MiB (0%)
  113. Title                                    : CHS
  114. Language                                 : Chinese
  115. Default                                  : Yes
  116. Forced                                   : No
  117. Text #4
  118. ID                                       : 7
  119. Format                                   : PGS
  120. Muxing mode                              : zlib
  121. Codec ID                                 : S_HDMV/PGS
  122. Codec ID/Info                            : Picture based subtitle format used on BDs/HD-DVDs
  123. Duration                                 : 1 h 38 min
  124. Bit rate                                 : 33.4 kb/s
  125. Count of elements                        : 1988
  126. Stream size                              : 23.5 MiB (0%)
  127. Title                                    : CHS
  128. Language                                 : Chinese
  129. Default                                  : Yes
  130. Forced                                   : No
  131. Menu
  132. 00:00:00.000                             : en:第 01 章
  133. 00:07:58.645                             : en:第 02 章
  134. 00:16:19.270                             : en:第 03 章
  135. 00:23:33.704                             : en:第 04 章
  136. 00:34:46.543                             : en:第 05 章
  137. 00:41:21.771                             : en:第 06 章
  138. 00:52:28.270                             : en:第 07 章
  139. 01:02:47.847                             : en:第 08 章
  140. 01:07:22.914                             : en:第 09 章
  141. 01:17:01.075                             : en:第 10 章
  142. 01:23:43.018                             : en:第 11 章
  143. 01:35:58.378                             : en:第 12 章





此处一般会放置磁力链或种子下载链接,不过此链接需要注册会员才能看到,点击“立即注册”
磁力链下载【下载链接仅对注册会员开放,登陆后可见】
BT9527电影天堂 1、BT9527电影天堂提供的BT文件均来源于互联网抓取,只供网友学习交流、技术提升使用。
2、我们遵守BitTorrent点对点协议原则,任何版权问题请联系原资源发布商,我们不处理任何版权纠纷,谢谢!如有争议请联系邮箱:BT9527#hotmail.com(#换成@)
3、如果您发现某页面或地址有错误,请联系站长邮箱BT9527#hotmail.com(#换成@),我们会尽快处理。您的热心是对BT9527电影天堂最大的支持。
4、本站建议去正规影院观看电影以支持电影行业发展。
最新回复 (0)

你可以在 登录 or 注册 后,对此帖发表评论!

返回