小鬼奇兵[中文字幕].Cloak.and.Dagger.1984.2160p.HDR.UHD.BluRay.DTS.x265-10bit-ENTHD 11.59GB

版主小s 12天前 40

✔资源类型:BD-4K   ✔电影年份:更 早   ✔电影地区:欧美   ✔电影分类:动作

◎标  题 小鬼奇兵
◎译  名 小证人 / 顽皮整不倒警察
◎片  名 Cloak & Dagger
◎年  代 1984
◎产  地 美国
◎类  别 动作 / 悬疑 / 惊悚 / 家庭 / 犯罪 / 冒险
◎语  言 英语
◎上映日期 1984-08-10
◎IMDb评分 6.6/10 (7281人评价)
◎IMDb链接 https://www.imdb.com/title/tt0087065/
◎豆瓣评分 7.2/10 (67人评价)
◎豆瓣链接 https://movie.douban.com/subject/2998268/
◎片  长 101 分钟
◎导  演 理查德·富兰克林 Richard Franklin
◎编  剧 康奈尔·伍尔里奇 Cornell Woolrich
       汤姆·霍兰德 Tom Holland
       南希·多德 Nancy Dowd
◎演  员 蒂姆·罗索维奇 Tim Rossovich
       奥布里·伍兹 Aubrey Woods
       吉纳·罗斯 Gene Ross
       Karen Leigh Hopkins Karen Leigh Hopkins
       威廉·弗西斯 William Forsythe
       达布尼·柯尔曼 Dabney Coleman
       约翰·麦克因泰 John McIntire
       Corey Rand Corey Rand
       珍妮特·诺兰 Jeanette Nolan
       Gary Moody Gary Moody
       亨利·托马斯 Henry Thomas
       路易·安德森 Louie Anderson
       林登·奇尔斯 Linden Chiles
       埃洛·卡萨多斯 Eloy Casados
       阿尔·戈麦斯 Al Gomez
       尼古拉斯·格斯特 Nicholas Guest
       威廉姆马奎斯 William Marquez
       Christina Nigra Christina Nigra
       迈克尔·墨菲 Michael Murphy
       罗伯特·多奎 Robert DoQui
       阿伦·卡尔 Allan Carr
       C.O. Erickson C.O. Erickson
       Brian May Brian May
       Victor J. Kemper Victor J. Kemper
       杰基•伯奇 Jackie Burch
       威廉·H·汤基 William H. Tuntke
       Todd Hallowell Todd Hallowell
       哈尔·高斯曼 Hal Gausman
       Barbara Lampson Barbara Lampson
       丹尼尔C.斯瑞派克 Daniel C. Striepeke
       Bill Taylor Bill Taylor

◎标  签 美国 / 儿童 / 美国电影 / 童年回忆 / 间谍 / 1980s / 游戏 / 剧情

◎简  介
  卡拉大卫(亨利汤玛斯 饰,「外星人」)是一个11岁大的小男孩,母亲已去世,父亲(戴尼柯曼 饰)则专注于自己的事业,根本无暇照顾他,所以大卫只好一头栽进电动玩具的世界,尤其是一种间谍游戏更是他的最爱 ,想像力丰富的大卫,甚至还为自己想像了一个伙伴,那就是超级间谍杰克(戴 尼柯曼一人分饰两角)。一日,大卫碰巧撞见一名被谋杀的FBI,并先于杀手得到了一张藏有秘密文件的游戏带。从此,他便卷入了一宗间谍活动中,这回可不是电动玩具了,而是发生在真实生活中!但是,大人们都不相信大卫的说词,他只好将想像中的杰克当作他的盟友。在好朋友的帮助下,大卫究竟能否战胜坏人? 下载地址:<a href="https://www.douban.com/link2/?url=http%3A%2F%2Fkuai.xunlei.com%2Fd%2FYZVYXHMJWNXH&amp;link2key=c060d43674" target="_blank" rel="nofollow">http://kuai.xunlei.c<wbr/>om/d/YZVYXHMJWNXH</a>
  1. ##### MediaInfo ######
  2. General
  3. Unique ID                                : 289403332616522790333625422346458378154 (0xD9B90DEF11CEEF667421B74EC4122FAA)
  4. Complete name                            : Cloak.and.Dagger.1984.2160p.HDR.UHD.BluRay.DTS.x265-10bit-ENTHD.mkv
  5. Format                                   : Matroska
  6. Format version                           : Version 4
  7. File size                                : 11.6 GiB
  8. Duration                                 : 1 h 41 min
  9. Overall bit rate                         : 16.4 Mb/s
  10. Movie name                               : Cloak and Dagger 1984 2160p HDR UHD BluRay DTS x265-10bit-HDS
  11. Encoded date                             : UTC 2022-06-21 22:44:00
  12. Writing application                      : mkvmerge v67.0.0 ('Under Stars') 64-bit
  13. Writing library                          : libebml v1.4.2 + libmatroska v1.6.4
  14. Video
  15. ID                                       : 1
  16. Format                                   : HEVC
  17. Format/Info                              : High Efficiency Video Coding
  18. Format profile                           : Main 10@L5.1@High
  19. HDR format                               : SMPTE ST 2086, HDR10 compatible
  20. Codec ID                                 : V_MPEGH/ISO/HEVC
  21. Duration                                 : 1 h 41 min
  22. Bit rate                                 : 14.8 Mb/s
  23. Width                                    : 3 840 pixels
  24. Height                                   : 2 076 pixels
  25. Display aspect ratio                     : 1.85:1
  26. Frame rate mode                          : Constant
  27. Frame rate                               : 23.976 (24000/1001/53354) FPS
  28. Color space                              : YUV
  29. Chroma subsampling                       : 4:2:0
  30. Bit depth                                : 10 bits
  31. Bits/(Pixel*Frame)                       : 0.078
  32. Stream size                              : 10.5 GiB (91%)
  33. Title                                    : @HDSky
  34. Writing library                          : x265 - H.265/HEVC codec
  35. Default                                  : Yes
  36. Forced                                   : No
  37. Color range                              : Limited
  38. Color primaries                          : BT.2020
  39. Transfer characteristics                 : PQ
  40. Matrix coefficients                      : BT.2020 non-constant
  41. Mastering display color primaries        : Display P3
  42. Mastering display luminance              : min: 0.0001 cd/m2, max: 1000 cd/m2
  43. Maximum Content Light Level              : 1000 cd/m2
  44. Maximum Frame-Average Light Level        : 400 cd/m2
  45. Audio
  46. ID                                       : 2
  47. Format                                   : DTS
  48. Format/Info                              : Digital Theater Systems
  49. Codec ID                                 : A_DTS
  50. Duration                                 : 1 h 41 min
  51. Bit rate mode                            : Constant
  52. Bit rate                                 : 1 509 kb/s
  53. Channel(s)                               : 2 channels
  54. Channel layout                           : L R
  55. Sampling rate                            : 48.0 kHz
  56. Frame rate                               : 93.750 FPS (512 SPF)
  57. Bit depth                                : 24 bits
  58. Compression mode                         : Lossy
  59. Stream size                              : 1.07 GiB (9%)
  60. Title                                    : English
  61. Language                                 : English
  62. Default                                  : Yes
  63. Forced                                   : No
  64. Text
  65. ID                                       : 3
  66. Format                                   : PGS
  67. Muxing mode                              : zlib
  68. Codec ID                                 : S_HDMV/PGS
  69. Codec ID/Info                            : Picture based subtitle format used on BDs/HD-DVDs
  70. Duration                                 : 1 h 40 min
  71. Bit rate                                 : 40.7 kb/s
  72. Count of elements                        : 3110
  73. Stream size                              : 29.4 MiB (0%)
  74. Title                                    : ENG
  75. Language                                 : English
  76. Default                                  : Yes
  77. Forced                                   : No
  78. Menu
  79. 00:00:00.000                             : en:第 01 章
  80. 00:21:35.127                             : en:第 02 章
  81. 00:40:17.790                             : en:第 03 章
  82. 01:00:30.961                             : en:第 04 章
  83. 01:20:51.722                             : en:第 05 章





此处一般会放置磁力链或种子下载链接,不过此链接需要注册会员才能看到,点击“立即注册”
磁力链下载【下载链接仅对注册会员开放,登陆后可见】
BT9527电影天堂 1、BT9527电影天堂提供的BT文件均来源于互联网抓取,只供网友学习交流、技术提升使用。
2、我们遵守BitTorrent点对点协议原则,任何版权问题请联系原资源发布商,我们不处理任何版权纠纷,谢谢!如有争议请联系邮箱:BT9527#hotmail.com(#换成@)
3、如果您发现某页面或地址有错误,请联系站长邮箱BT9527#hotmail.com(#换成@),我们会尽快处理。您的热心是对BT9527电影天堂最大的支持。
4、本站建议去正规影院观看电影以支持电影行业发展。
最新回复 (0)

你可以在 登录 or 注册 后,对此帖发表评论!

返回
发新帖