大鱼[国英多音轨/简繁英字幕].Big.Fish.2003.BluRay.1080p.x265.10bit.2Audios-MiniHD 6.16GB

版主小s 3月前 164

✔资源类型:暂未分类   ✔电影年份:更 早   ✔电影地区:欧美   ✔电影分类:剧情

◎译  名 大鱼 / 大鱼奇缘(港) / 大智若鱼(台) / 大鱼老爸
◎片  名 Big Fish
◎年  代 2003
◎产  地 美国
◎类  别 剧情 / 家庭 / 奇幻 / 冒险
◎语  言 英语 / 法语 / 俄语 / 粤语 / 汉语普通话
◎上映日期 2003-12-04(纽约首映) / 2004-01-09(美国)
◎IMDb链接 https://www.imdb.com/title/tt0319061/
◎豆瓣评分 8.8/10 (526187人评价)
◎豆瓣链接 https://movie.douban.com/subject/1291545/
◎片  长 125 分钟
◎导  演 蒂姆·波顿 Tim Burton (id:1019002)
◎编  剧 约翰·奥古斯特 John August (id:1022820)
       丹尼尔·华莱士 Daniel Wallace (id:1464867)
◎演  员 伊万·麦克格雷格 Ewan McGregor (id:1012532)
       阿尔伯特·芬尼 Albert Finney (id:1048153)
       比利·克鲁德普 Billy Crudup (id:1009265)
       杰西卡·兰格 Jessica Lange (id:1000091)
       海伦娜·伯翰·卡特 Helena Bonham Carter (id:1016680)
       艾莉森·洛曼 Alison Lohman (id:1040991)
       罗伯特·吉尔劳姆 Robert Guillaume (id:1036509)
       玛丽昂·歌迪亚 Marion Cotillard (id:1006955)
       马修·麦克格罗里 Matthew McGrory (id:1045000)
       大卫·丹曼 David Denman (id:1087098)
       米西·派勒 Missi Pyle (id:1041116)
       卢顿·万恩怀特三世 Loudon Wainwright III (id:1050066)
       艾达·泰 Ada Tai (id:1315097)
       艾伦妮·泰 Arlene Tai (id:1315098)
       史蒂夫·布西密 Steve Buscemi (id:1054409)
       丹尼·德维托 Danny DeVito (id:1040516)
       迪普·罗伊 Deep Roy (id:1319340)
       海利·安妮·内尔森 Hailey Anne Nelson (id:1208367)
       麦莉·赛勒斯 Miley Cyrus (id:1041019)
       拉塞尔·霍奇金森 Russell Hodgkinson (id:1313618)
       崔沃·加格农 Trevor Gagnon (id:1050018)
       R.基斯·哈里斯 R. Keith Harris (id:1286099)
       扎克·哈内尔 Zach Hanner (id:1099070)
       加里·牛顿 Gary Newton (id:1293119)
       布鲁斯·科恩 Bruce Cohen (id:1280973)
       丹·金克斯 Dan Jinks (id:1287740)
       Katterli Frauenfelder Katterli Frauenfelder (id:1284124)
       丹尼·艾夫曼 Danny Elfman (id:1019059)
       丹尼斯·查米恩 Denise Chamian (id:1280408)
       丹尼斯·加斯纳 Dennis Gassner (id:1284606)
       南茜·黑格 Nancy Haigh (id:1285800)
       Jean-Michel Ducourty Jean-Michel Ducourty (id:1282767)
       Richard L. Johnson Richard L. Johnson (id:1287803)
       柯琳·阿特伍德 Colleen Atwood (id:1277560)
       琼·安·布兰克 Jean Ann Black (id:1278717)
       乔什·罗森格兰特 John Rosengrant (id:1296098)
       斯科特·维勒尔 Scott Wheeler (id:1300792)
       Donna M. Premick Donna M. Premick (id:1294858)
       Dorothy J. Pearl Dorothy J. Pearl (id:1294172)
       Michelle Vittone Michelle Vittone (id:1300143)
       Linda De Andrea Linda De Andrea (id:1281974)
       迈克·史密斯森 Mike Smithson (id:1297961)
       Katterli Frauenfelder Katterli Frauenfelder (id:1284124)
       科林·德罗布尼斯 Colin Drobnis (id:1282732)
       Ben Shepherd Ben Shepherd (id:1303135)
       John E. Sasaki John E. Sasaki (id:1296724)
       Blaine Kennison Blaine Kennison (id:1288414)
       凯文·斯科特·麦克 Kevin Scott Mack (id:1290647)
       塞斯·毛里 Seth Maury (id:1291336)

◎简  介
  爱德华(伊万·麦克格雷格 Ewan McGregor 饰)生性热爱自由,成年之后,他选择离开家乡,踏上了环游世界的旅程。一路上,爱德华遇见了各种各样稀奇古怪的角色,经历了无数精彩绝伦的的冒险,而他日后最大的兴趣,就是向他人喋喋不休的重复讲述他的这一段奇幻旅程。                                    
                                威尔(比利·克鲁德普 Billy Crudup 饰)是爱德华的儿子,他并不相信父亲所讲述的那些光怪陆离的故事,甚至对此感到无比厌烦。婚后,他同父亲中断了联系,一晃眼就是数年过去。当再次得到爱德华的消息之时,威尔才知道父亲即将不久于人世,他决定去见爱德华最后一面。然而,这一次,威尔终于发现了隐藏在这些故事背后的奥秘和真相。

◎获奖情况 (共12项)
  第76届奥斯卡金像奖 (2004)
  最佳原创配乐(提名)
   └──丹尼·艾夫曼 (id:1019059)

  第61届金球奖 (2004)
  电影类 最佳音乐/喜剧片(提名)
  电影类 最佳男配角(提名)
   └──阿尔伯特·芬尼 (id:1048153)
  电影类 最佳原创配乐(提名)
   └──丹尼·艾夫曼 (id:1019059)
  电影类 最佳原创歌曲(提名)
   └──艾迪·韦德 (id:1014125)

  第57届英国电影学院奖 (2004)
  电影奖 最佳影片(提名)
  电影奖 最佳导演(提名)
   └──蒂姆·波顿 (id:1019002)
  电影奖 最佳男配角(提名)
   └──阿尔伯特·芬尼 (id:1048153)
  电影奖 最佳改编剧本(提名)
   └──约翰·奥古斯特 (id:1022820)
  电影奖 最佳化妆/发型(提名)
  电影奖 最佳艺术指导(提名)
   └──丹尼斯·加斯纳 (id:1284606)
  电影奖 最佳特殊视觉效果(提名)

  1. ##### MediaInfo ######
  2. General
  3. Unique ID                                : 104427685758701493395684015058587175066 (0x4E900A6B7BE1C92F695A98576A87489A)
  4. Complete name                            : Big.Fish.2003.BluRay.1080p.x265.10bit.2Audios-MiniHD.mkv
  5. Format                                   : Matroska
  6. Format version                           : Version 4
  7. File size                                : 6.16 GiB
  8. Duration                                 : 2 h 5 min
  9. Overall bit rate                         : 7 047 kb/s
  10. Encoded date                             : UTC 2018-02-05 00:38:46
  11. Writing application                      : mkvmerge v20.0.0 ('I Am The Sun') 64-bit
  12. Writing library                          : libebml v1.3.5 + libmatroska v1.4.8
  13. Video
  14. ID                                       : 1
  15. Format                                   : HEVC
  16. Format/Info                              : High Efficiency Video Coding
  17. Format profile                           : Main 10@L4@High
  18. Codec ID                                 : V_MPEGH/ISO/HEVC
  19. Duration                                 : 2 h 5 min
  20. Bit rate                                 : 5 900 kb/s
  21. Width                                    : 1 920 pixels
  22. Height                                   : 1 044 pixels
  23. Display aspect ratio                     : 1.85:1
  24. Frame rate mode                          : Constant
  25. Frame rate                               : 23.976 (24000/1001/53354) FPS
  26. Color space                              : YUV
  27. Chroma subsampling                       : 4:2:0
  28. Bit depth                                : 10 bits
  29. Bits/(Pixel*Frame)                       : 0.123
  30. Stream size                              : 5.16 GiB (84%)
  31. Title                                    : 视频
  32. Default                                  : Yes
  33. Forced                                   : No
  34. Color range                              : Limited
  35. Color primaries                          : BT.709
  36. Audio #1
  37. ID                                       : 2
  38. Format                                   : AC-3
  39. Format/Info                              : Audio Coding 3
  40. Commercial name                          : Dolby Digital
  41. Codec ID                                 : A_AC3
  42. Duration                                 : 2 h 5 min
  43. Bit rate mode                            : Constant
  44. Bit rate                                 : 640 kb/s
  45. Channel(s)                               : 6 channels
  46. Channel layout                           : L R C LFE Ls Rs
  47. Sampling rate                            : 48.0 kHz
  48. Frame rate                               : 31.250 FPS (1536 SPF)
  49. Compression mode                         : Lossy
  50. Stream size                              : 573 MiB (9%)
  51. Title                                    : 英语
  52. Language                                 : English
  53. Service kind                             : Complete Main
  54. Default                                  : Yes
  55. Forced                                   : Yes
  56. Audio #2
  57. ID                                       : 3
  58. Format                                   : AC-3
  59. Format/Info                              : Audio Coding 3
  60. Commercial name                          : Dolby Digital
  61. Codec ID                                 : A_AC3
  62. Duration                                 : 2 h 5 min
  63. Bit rate mode                            : Constant
  64. Bit rate                                 : 448 kb/s
  65. Channel(s)                               : 6 channels
  66. Channel layout                           : L R C LFE Ls Rs
  67. Sampling rate                            : 48.0 kHz
  68. Frame rate                               : 31.250 FPS (1536 SPF)
  69. Compression mode                         : Lossy
  70. Stream size                              : 401 MiB (6%)
  71. Title                                    : 国语
  72. Language                                 : Chinese
  73. Service kind                             : Complete Main
  74. Default                                  : No
  75. Forced                                   : No
  76. Text #1
  77. ID                                       : 4
  78. Format                                   : PGS
  79. Muxing mode                              : zlib
  80. Codec ID                                 : S_HDMV/PGS
  81. Codec ID/Info                            : Picture based subtitle format used on BDs/HD-DVDs
  82. Duration                                 : 1 h 59 min
  83. Bit rate                                 : 20.3 kb/s
  84. Count of elements                        : 2162
  85. Stream size                              : 17.3 MiB (0%)
  86. Title                                    : 简中
  87. Language                                 : Chinese
  88. Default                                  : No
  89. Forced                                   : No
  90. Text #2
  91. ID                                       : 5
  92. Format                                   : PGS
  93. Muxing mode                              : zlib
  94. Codec ID                                 : S_HDMV/PGS
  95. Codec ID/Info                            : Picture based subtitle format used on BDs/HD-DVDs
  96. Duration                                 : 1 h 59 min
  97. Bit rate                                 : 21.2 kb/s
  98. Count of elements                        : 2162
  99. Stream size                              : 18.0 MiB (0%)
  100. Title                                    : 繁中
  101. Language                                 : Chinese
  102. Default                                  : No
  103. Forced                                   : No
  104. Text #3
  105. ID                                       : 6
  106. Format                                   : PGS
  107. Muxing mode                              : zlib
  108. Codec ID                                 : S_HDMV/PGS
  109. Codec ID/Info                            : Picture based subtitle format used on BDs/HD-DVDs
  110. Duration                                 : 1 h 59 min
  111. Bit rate                                 : 40.6 kb/s
  112. Count of elements                        : 2323
  113. Stream size                              : 34.6 MiB (1%)
  114. Title                                    : 简英双语
  115. Default                                  : Yes
  116. Forced                                   : No
  117. Text #4
  118. ID                                       : 7
  119. Format                                   : PGS
  120. Muxing mode                              : zlib
  121. Codec ID                                 : S_HDMV/PGS
  122. Codec ID/Info                            : Picture based subtitle format used on BDs/HD-DVDs
  123. Duration                                 : 1 h 59 min
  124. Bit rate                                 : 48.7 kb/s
  125. Count of elements                        : 2288
  126. Stream size                              : 41.5 MiB (1%)
  127. Title                                    : 英语
  128. Language                                 : English
  129. Default                                  : No
  130. Forced                                   : No
  131. Menu
  132. 00:00:00.000                             : en:Chapter 01
  133. 00:08:47.986                             : en:Chapter 02
  134. 00:15:03.611                             : en:Chapter 03
  135. 00:22:47.408                             : en:Chapter 04
  136. 00:30:24.072                             : en:Chapter 05
  137. 00:42:43.060                             : en:Chapter 06
  138. 00:49:50.696                             : en:Chapter 07
  139. 00:56:46.653                             : en:Chapter 08
  140. 01:03:17.919                             : en:Chapter 09
  141. 01:08:36.779                             : en:Chapter 10
  142. 01:22:07.548                             : en:Chapter 11
  143. 01:30:10.947                             : en:Chapter 12
  144. 01:36:26.906                             : en:Chapter 13
  145. 01:45:12.723                             : en:Chapter 14
  146. 01:48:58.657                             : en:Chapter 15
  147. 01:56:41.077                             : en:Chapter 16





此处一般会放置磁力链或种子下载链接,不过此链接需要注册会员才能看到,点击“立即注册”
磁力链下载【下载链接仅对注册会员开放,登陆后可见】
BT9527电影天堂 1、BT9527电影天堂提供的BT文件均来源于互联网抓取,只供网友学习交流、技术提升使用。
2、我们遵守BitTorrent点对点协议原则,任何版权问题请联系原资源发布商,我们不处理任何版权纠纷,谢谢!如有争议请联系邮箱:BT9527#hotmail.com(#换成@)
3、如果您发现某页面或地址有错误,请联系站长邮箱BT9527#hotmail.com(#换成@),我们会尽快处理。您的热心是对BT9527电影天堂最大的支持。
4、本站建议去正规影院观看电影以支持电影行业发展。
最新回复 (0)

你可以在 登录 or 注册 后,对此帖发表评论!

返回