大骚乱[简英字幕].Mayhem.2017.BluRay.1080p.x265.10bit-MiniHD 3.13GB

版主小s 12天前 74

✔资源类型:暂未分类   ✔电影年份:2017   ✔电影地区:欧美   ✔电影分类:动作

◎译  名 大骚乱 / 去死吧!老板(台)
◎片  名 Mayhem
◎年  代 2017
◎产  地 美国
◎类  别 动作 / 恐怖
◎语  言 英语
◎上映日期 2017-03-13(西南偏南电影节) / 2017-11-10(美国)
◎IMDb链接 https://www.imdb.com/title/tt4348012/
◎豆瓣评分 6.5/10 (10659人评价)
◎豆瓣链接 https://movie.douban.com/subject/26798032/
◎片  长 86分钟
◎导  演 乔·林奇 Joe Lynch (id:1359704)
◎编  剧 马蒂亚斯·卡鲁索 Matias Caruso (id:1261267)
◎演  员 史蒂文·延 Steven Yeun (id:1275960)
       萨玛拉·维文 Samara Weaving (id:1267671)
       史蒂文·布兰德 Steven Brand (id:1009579)
       卡罗琳·奇克泽 Caroline Chikezie (id:1069345)
       凯瑞·福克斯 Kerry Fox (id:1022828)
       达拉斯·罗伯特斯 Dallas Roberts (id:1044905)
       马克·福斯特 Mark Frost (id:1384087)
       克莱尔·德拉马尔 Claire Dellamar (id:1384976)
       安德烈·埃里克森 André Eriksen (id:1377943)
       尼古拉·肯特 Nikola Kent (id:1384978)
       露西·查普尔 Lucy Chappell (id:1384982)
       沃力佳·鲁斯蒂奇 Olja Hrustic (id:1384983)
       博扬·佩里奇 Bojan Peric (id:1262828)
       安娜玛丽亚·塞尔达 Annamaria Serda (id:1384984)
       斯科特·亚历山大·杨 Scott Alexander Young (id:1350055)
       妮娜·塞尼卡 Nina Senicar (id:1324220)
       德拉加娜·阿特利亚 Dragana Atlija (id:1348307)
       莫米尔卡·拜洛维奇 Momirka Bailovic (id:1468710)

◎简  介
  剧本由马蒂亚斯·卡鲁索创作,故事讲述一种病毒感染了一个公司的法务部,而在同一天律师德里克·桑德斯被同事陷害并且被不公平地开除。这种感染会使人们表现出最原始和野性的冲动。被困在被隔离的大楼里,我们的英雄主人公只能竭尽全力通过野蛮地拼斗,夺回属于自己的工作和人生。
  1. ##### MediaInfo ######
  2. General
  3. Unique ID                                : 202858971412425192260488075498340203833 (0x989D377D2137000EC35B831BD0B3BD39)
  4. Complete name                            : Mayhem.2017.BluRay.1080p.x265.10bit-MiniHD.mkv
  5. Format                                   : Matroska
  6. Format version                           : Version 4
  7. File size                                : 3.13 GiB
  8. Duration                                 : 1 h 27 min
  9. Overall bit rate                         : 5 120 kb/s
  10. Encoded date                             : UTC 2017-12-25 11:33:34
  11. Writing application                      : mkvmerge v19.0.0 ('Brave Captain') 64-bit
  12. Writing library                          : libebml v1.3.5 + libmatroska v1.4.8
  13. Video
  14. ID                                       : 1
  15. Format                                   : HEVC
  16. Format/Info                              : High Efficiency Video Coding
  17. Format profile                           : Main 10@L4@High
  18. Codec ID                                 : V_MPEGH/ISO/HEVC
  19. Duration                                 : 1 h 27 min
  20. Bit rate                                 : 3 554 kb/s
  21. Width                                    : 1 920 pixels
  22. Height                                   : 804 pixels
  23. Display aspect ratio                     : 2.40:1
  24. Frame rate mode                          : Constant
  25. Frame rate                               : 23.976 (24000/1001/53354) FPS
  26. Color space                              : YUV
  27. Chroma subsampling                       : 4:2:0
  28. Bit depth                                : 10 bits
  29. Bits/(Pixel*Frame)                       : 0.096
  30. Stream size                              : 2.17 GiB (69%)
  31. Title                                    : Video.HEVC
  32. Default                                  : Yes
  33. Forced                                   : No
  34. Color range                              : Limited
  35. Color primaries                          : BT.709
  36. Audio
  37. ID                                       : 2
  38. Format                                   : DTS
  39. Format/Info                              : Digital Theater Systems
  40. Codec ID                                 : A_DTS
  41. Duration                                 : 1 h 27 min
  42. Bit rate mode                            : Constant
  43. Bit rate                                 : 1 509 kb/s
  44. Channel(s)                               : 6 channels
  45. Channel layout                           : C L R Ls Rs LFE
  46. Sampling rate                            : 48.0 kHz
  47. Frame rate                               : 93.750 FPS (512 SPF)
  48. Bit depth                                : 24 bits
  49. Compression mode                         : Lossy
  50. Stream size                              : 945 MiB (29%)
  51. Title                                    : Audio.dts-5.1
  52. Language                                 : English
  53. Default                                  : Yes
  54. Forced                                   : No
  55. Text #1
  56. ID                                       : 3
  57. Format                                   : PGS
  58. Codec ID                                 : S_HDMV/PGS
  59. Codec ID/Info                            : Picture based subtitle format used on BDs/HD-DVDs
  60. Duration                                 : 1 h 26 min
  61. Bit rate                                 : 54.4 kb/s
  62. Count of elements                        : 3608
  63. Stream size                              : 33.9 MiB (1%)
  64. Title                                    : english.sup
  65. Language                                 : English
  66. Default                                  : No
  67. Forced                                   : No
  68. Text #2
  69. ID                                       : 4
  70. Format                                   : UTF-8
  71. Codec ID                                 : S_TEXT/UTF8
  72. Codec ID/Info                            : UTF-8 Plain Text
  73. Duration                                 : 1 h 22 min
  74. Bit rate                                 : 130 b/s
  75. Count of elements                        : 1263
  76. Stream size                              : 79.0 KiB (0%)
  77. Title                                    : 简英.srt
  78. Default                                  : Yes
  79. Forced                                   : No
  80. Menu
  81. 00:00:00.000                             : en:Chapter 01
  82. 00:10:06.189                             : en:Chapter 02
  83. 00:19:52.566                             : en:Chapter 03
  84. 00:34:24.896                             : en:Chapter 04
  85. 00:39:10.056                             : en:Chapter 05
  86. 00:56:05.279                             : en:Chapter 06
  87. 01:04:28.573                             : en:Chapter 07
  88. 01:13:04.839                             : en:Chapter 08
  89. 01:18:09.602                             : en:Chapter 09
  90. 01:23:36.428                             : en:Chapter 10





此处一般会放置磁力链或种子下载链接,不过此链接需要注册会员才能看到,点击“立即注册”
磁力链下载【下载链接仅对注册会员开放,登陆后可见】
BT9527电影天堂 1、BT9527电影天堂提供的BT文件均来源于互联网抓取,只供网友学习交流、技术提升使用。
2、我们遵守BitTorrent点对点协议原则,任何版权问题请联系原资源发布商,我们不处理任何版权纠纷,谢谢!如有争议请联系邮箱:BT9527#hotmail.com(#换成@)
3、如果您发现某页面或地址有错误,请联系站长邮箱BT9527#hotmail.com(#换成@),我们会尽快处理。您的热心是对BT9527电影天堂最大的支持。
4、本站建议去正规影院观看电影以支持电影行业发展。
最新回复 (0)

你可以在 登录 or 注册 后,对此帖发表评论!

返回
发新帖