大侦探福尔摩斯2:诡影游戏[国英多音轨/简繁特效字幕].Sherlock.Game.of.Shadows.2011.BluRay.1080p.x265.10bit.2Audio-MiniHD 7.74GB

版主小s 8天前 47

✔资源类型:暂未分类   ✔电影年份:2011   ✔电影地区:欧美   ✔电影分类:动作

◎译  名 大侦探福尔摩斯2:诡影游戏 / 神探福尔摩斯:诡影游戏(港) / 福尔摩斯:诡影游戏(台) / 大侦探福尔摩斯2:暗影游戏 / 福尔摩斯2
◎片  名 Sherlock Holmes: A Game of Shadows
◎年  代 2011
◎产  地 美国
◎类  别 动作 / 悬疑 / 犯罪
◎语  言 英语
◎上映日期 2012-01-15(中国大陆) / 2011-12-16(美国)
◎IMDb链接 https://www.imdb.com/title/tt1515091/
◎豆瓣评分 7.7/10 (217061人评价)
◎豆瓣链接 https://movie.douban.com/subject/4051753/
◎片  长 129分钟
◎导  演 盖·里奇 Guy Ritchie (id:1025148)
◎编  剧 阿瑟·柯南·道尔 Arthur Conan Doyle (id:1019222)
       基兰·马尔罗尼 Kieran Mulroney (id:1027961)
       米歇尔·马尔罗尼 Michele Mulroney (id:1317500)
       德蒙特·莫罗尼 Dermot Mulroney (id:1040534)
◎演  员 小罗伯特·唐尼 Robert Downey Jr. (id:1016681)
       裘德·洛 Jude Law (id:1010510)
       瑞秋·麦克亚当斯 Rachel McAdams (id:1053587)
       劳米·拉佩斯 Noomi Rapace (id:1013796)
       斯蒂芬·弗雷 Stephen Fry (id:1049500)
       凯利·蕾莉 Kelly Reilly (id:1009283)
       杰瑞德·哈里斯 Jared Harris (id:1049700)
       杰拉丁妮·詹姆斯 Geraldine James (id:1010653)
       威廉·休斯顿 William Houston (id:1100629)
       保罗·安德森 Paul Anderson (id:1317404)
       劳伦斯·波萨 Laurentiu Possa (id:1424722)
       弗拉基米尔·弗迪克 Vladimir Furdik (id:1415817)
       丹尼尔·纳普勒斯 Daniel Naprous (id:1395103)
       埃迪·马森 Eddie Marsan (id:1291072)
       杰克·拉斯基 Jack Laskey (id:1327009)
       蒂埃里·钮维 Thierry Neuvic (id:1023310)
       克里夫·罗素 Clive Russell (id:1036706)
       苏珊·唐尼 Susan Downey (id:1040608)
       汉斯·季默 Hans Zimmer (id:1054386)
       蒂姆·阿斯兰姆 Tim Aslam (id:1056342)
       珍妮·碧万 Jenny Beavan (id:1278169)
       查德·斯塔赫斯基 Chad Stahelski (id:1154486)
       奥利维尔·蒂博 Olivier Thibaut (id:1325881)

◎简  介
  奥地利皇储突然自杀案件,让沉寂6个月的福尔摩斯(小罗伯特·唐尼 Robert Downey Jr. 饰)再次启动。这次,福尔摩斯有了一个强有力的对手——智力上与福尔摩斯相当的莫里亚蒂教授(杰瑞德·哈里斯 Jared Harris 饰)。为了调查清楚皇储的自杀案件,福尔摩 斯与华生(裘德·洛 Jude Law 饰),在吉普赛占星师西姆(劳米·拉佩斯 Noomi Rapace 饰)的帮助下,和莫里亚蒂展开了在整个欧洲大陆上的较量,从英国到法国、德国……虽然被称为最聪明的人,但是莫里亚蒂教授仿佛能预知福尔摩斯的行踪,都能先一步福尔摩斯逃之夭夭。莫里亚蒂教授死亡名单上的人一个个被抹杀,历史可能就此被改编,面对如此强大的对手,福尔摩斯如何应对?

◎获奖情况 (共3项)
  第14届美国青少年选择奖 (2012)
  最佳动作片(提名)
  最佳动作片男演员(提名)
   └──小罗伯特·唐尼 (id:1016681)
  最佳动作片女演员(提名)
   └──劳米·拉佩斯 (id:1013796)

  1. ##### MediaInfo ######
  2. General
  3. Unique ID                                : 242504076235149942714031113637012788419 (0xB6709611940D7371A9EAC16CDC7954C3)
  4. Complete name                            : Sherlock.Holmes:A.Game.of.Shadows.2011.BluRay.1080p.x265.10bit.2Audio-MiniHD.mkv
  5. Format                                   : Matroska
  6. Format version                           : Version 4
  7. File size                                : 7.74 GiB
  8. Duration                                 : 2 h 8 min
  9. Overall bit rate                         : 8 605 kb/s
  10. Encoded date                             : UTC 2018-04-02 04:13:23
  11. Writing application                      : mkvmerge v16.0.0 ('Protest') 64-bit
  12. Writing library                          : libebml v1.3.5 + libmatroska v1.4.8
  13. Video
  14. ID                                       : 1
  15. Format                                   : HEVC
  16. Format/Info                              : High Efficiency Video Coding
  17. Format profile                           : Main 10@L4@Main
  18. Codec ID                                 : V_MPEGH/ISO/HEVC
  19. Duration                                 : 2 h 8 min
  20. Bit rate                                 : 7 454 kb/s
  21. Width                                    : 1 920 pixels
  22. Height                                   : 800 pixels
  23. Display aspect ratio                     : 2.40:1
  24. Frame rate mode                          : Constant
  25. Frame rate                               : 23.976 (24000/1001/53354) FPS
  26. Color space                              : YUV
  27. Chroma subsampling                       : 4:2:0
  28. Bit depth                                : 10 bits
  29. Bits/(Pixel*Frame)                       : 0.202
  30. Stream size                              : 6.70 GiB (87%)
  31. Writing library                          : x265 2.6:[Windows][GCC 4.9.2][64 bit] 10bit
  32. Encoding settings                        : cpuid=533541050111 / frame-threads=3 / wpp / no-pmode / no-pme / no-psnr / no-ssim / log-level=2 / input-csp=1 / input-res=1920x800 / interlace=0 / total-frames=0 / level-idc=0 / high-tier=1 / uhd-bd=0 / ref=5 / no-allow-non-conformance / no-repeat-headers / annexb / no-aud / no-hrd / info / hash=0 / no-temporal-layers / no-open-gop / min-keyint=1 / keyint=360 / bframes=8 / b-adapt=2 / b-pyramid / bframe-bias=0 / rc-lookahead=60 / lookahead-slices=4 / NTMzNTQ=uuDQuD2mJt9fsCf / scenecut=40 / no-intra-refresh / ctu=32 / min-cu-size=8 / no-rect / no-amp / max-tu-size=16 / tu-inter-depth=2 / tu-intra-depth=2 / limit-tu=4 / rdoq-level=1 / dynamic-rd=0.00 / no-ssim-rd / signhide / tskip / nr-intra=0 / nr-inter=0 / no-constrained-intra / no-strong-intra-smoothing / max-merge=4 / limit-refs=2 / limit-modes / me=3 / subme=5 / merange=25 / no-temporal-mvp / weightp / weightb / no-analyze-src-pics / deblock=-1:-1 / no-sao / no-sao-non-deblock / rd=4 / no-early-skip / rskip / no-fast-intra / no-tskip-fast / no-cu-lossless / b-intra / no-splitrd-skip / rdpenalty=0 / psy-rd=2.00 / psy-rdoq=4.00 / no-rd-refine / analysis-reuse-mode=0 / no-lossless / cbqpoffs=-2 / crqpoffs=-2 / rc=crf / crf=21.0 / qcomp=0.70 / qpstep=4 / stats-write=0 / stats-read=0 / ipratio=1.40 / pbratio=1.30 / aq-mode=2 / aq-strength=0.80 / no-cutree / zone-count=0 / no-strict-cbr / qg-size=8 / no-rc-grain / qpmax=61 / qpmin=0 / no-const-vbv / sar=1 / overscan=0 / videoformat=5 / range=0 / colorprim=1 / transfer=2 / colormatrix=2 / chromaloc=0 / display-window=0 / max-cll=0,0 / min-luma=0 / max-luma=1023 / log2-max-poc-lsb=8 / vui-timing-info / vui-hrd-info / slices=1 / no-opt-qp-pps / no-opt-ref-list-length-pps / no-multi-pass-opt-rps / scenecut-bias=0.05 / no-opt-cu-delta-qp / no-aq-motion / no-hdr / no-hdr-opt / no-dhdr10-opt / analysis-reuse-level=5 / scale-factor=0 / refine-intra=0 / refine-inter=0 / refine-mv=0 / no-limit-sao / ctu-info=0 / no-lowpass-dct / refine-mv-type=0 / copy-pic=1
  33. Default                                  : Yes
  34. Forced                                   : No
  35. Color range                              : Limited
  36. Color primaries                          : BT.709
  37. Audio #1
  38. ID                                       : 2
  39. Format                                   : AC-3
  40. Format/Info                              : Audio Coding 3
  41. Commercial name                          : Dolby Digital
  42. Codec ID                                 : A_AC3
  43. Duration                                 : 2 h 8 min
  44. Bit rate mode                            : Constant
  45. Bit rate                                 : 640 kb/s
  46. Channel(s)                               : 6 channels
  47. Channel layout                           : L R C LFE Ls Rs
  48. Sampling rate                            : 48.0 kHz
  49. Frame rate                               : 31.250 FPS (1536 SPF)
  50. Compression mode                         : Lossy
  51. Stream size                              : 589 MiB (7%)
  52. Language                                 : English
  53. Service kind                             : Complete Main
  54. Default                                  : Yes
  55. Forced                                   : No
  56. Audio #2
  57. ID                                       : 3
  58. Format                                   : AAC LC
  59. Format/Info                              : Advanced Audio Codec Low Complexity
  60. Codec ID                                 : A_AAC-2
  61. Duration                                 : 2 h 8 min
  62. Bit rate                                 : 384 kb/s
  63. Channel(s)                               : 2 channels
  64. Channel layout                           : L R
  65. Sampling rate                            : 48.0 kHz
  66. Frame rate                               : 46.875 FPS (1024 SPF)
  67. Compression mode                         : Lossy
  68. Stream size                              : 354 MiB (4%)
  69. Title                                    : 国语
  70. Default                                  : No
  71. Forced                                   : No
  72. Text #1
  73. ID                                       : 4
  74. Format                                   : PGS
  75. Muxing mode                              : zlib
  76. Codec ID                                 : S_HDMV/PGS
  77. Codec ID/Info                            : Picture based subtitle format used on BDs/HD-DVDs
  78. Duration                                 : 2 h 2 min
  79. Bit rate                                 : 75.3 kb/s
  80. Count of elements                        : 3206
  81. Stream size                              : 66.0 MiB (1%)
  82. Title                                    : 特效简体中英
  83. Language                                 : Chinese
  84. Default                                  : Yes
  85. Forced                                   : No
  86. Text #2
  87. ID                                       : 5
  88. Format                                   : PGS
  89. Muxing mode                              : zlib
  90. Codec ID                                 : S_HDMV/PGS
  91. Codec ID/Info                            : Picture based subtitle format used on BDs/HD-DVDs
  92. Duration                                 : 2 h 2 min
  93. Bit rate                                 : 49.5 kb/s
  94. Count of elements                        : 3206
  95. Stream size                              : 43.3 MiB (1%)
  96. Title                                    : 特效简体中文
  97. Language                                 : Chinese
  98. Default                                  : No
  99. Forced                                   : No
  100. Text #3
  101. ID                                       : 6
  102. Format                                   : PGS
  103. Muxing mode                              : zlib
  104. Codec ID                                 : S_HDMV/PGS
  105. Codec ID/Info                            : Picture based subtitle format used on BDs/HD-DVDs
  106. Duration                                 : 2 h 2 min
  107. Bit rate                                 : 75.9 kb/s
  108. Count of elements                        : 3206
  109. Stream size                              : 66.5 MiB (1%)
  110. Title                                    : 特效繁体中英
  111. Language                                 : Chinese
  112. Default                                  : No
  113. Forced                                   : No
  114. Text #4
  115. ID                                       : 7
  116. Format                                   : PGS
  117. Muxing mode                              : zlib
  118. Codec ID                                 : S_HDMV/PGS
  119. Codec ID/Info                            : Picture based subtitle format used on BDs/HD-DVDs
  120. Duration                                 : 2 h 2 min
  121. Bit rate                                 : 50.1 kb/s
  122. Count of elements                        : 3206
  123. Stream size                              : 43.9 MiB (1%)
  124. Title                                    : 特效繁体中文
  125. Language                                 : Chinese
  126. Default                                  : No
  127. Forced                                   : No





此处一般会放置磁力链或种子下载链接,不过此链接需要注册会员才能看到,点击“立即注册”
磁力链下载【下载链接仅对注册会员开放,登陆后可见】
BT9527电影天堂 1、BT9527电影天堂提供的BT文件均来源于互联网抓取,只供网友学习交流、技术提升使用。
2、我们遵守BitTorrent点对点协议原则,任何版权问题请联系原资源发布商,我们不处理任何版权纠纷,谢谢!如有争议请联系邮箱:BT9527#hotmail.com(#换成@)
3、如果您发现某页面或地址有错误,请联系站长邮箱BT9527#hotmail.com(#换成@),我们会尽快处理。您的热心是对BT9527电影天堂最大的支持。
4、本站建议去正规影院观看电影以支持电影行业发展。
最新回复 (0)

你可以在 登录 or 注册 后,对此帖发表评论!

返回
发新帖