坚强[简繁英字幕].Stronger.2017.BluRay.1080p.x265.10bit-MiniHD 5.72GB

版主小s 12天前 41

✔资源类型:暂未分类   ✔电影年份:2017   ✔电影地区:欧美   ✔电影分类:剧情

◎译  名 坚强 / 你是我的勇气(台) / 生命因你更强(港) / 坚强波士顿
◎片  名 Stronger
◎年  代 2017
◎产  地 美国
◎类  别 剧情 / 传记
◎语  言 英语
◎上映日期 2017-09-08(多伦多电影节) / 2017-09-22(美国)
◎IMDb链接 https://www.imdb.com/title/tt3881784/
◎豆瓣评分 6.7/10 (4401人评价)
◎豆瓣链接 https://movie.douban.com/subject/26575145/
◎片  长 119分钟
◎导  演 大卫·戈登·格林 David Gordon Green (id:1000217)
◎编  剧 约翰·珀罗诺 John Pollono (id:1128343)
       杰夫·鲍曼 Jeff Bauman (id:1381731)
       布雷特·韦特 Bret Witter (id:1337060)
◎演  员 杰克·吉伦哈尔 Jake Gyllenhaal (id:1048002)
       塔提阿娜·玛斯拉尼 Tatiana Maslany (id:1225652)
       米兰达·理查森 Miranda Richardson (id:1031812)
       小理查德·莱恩 Richard Lane Jr. (id:1381732)
       内森·里奇曼 Nate Richman (id:1381733)
       莱尼·克拉克 Lenny Clarke (id:1070515)
       帕蒂·奥尼尔 Patty O'Neil (id:1381734)
       克兰西·布朗 Clancy Brown (id:1013817)
       凯特·菲茨杰拉德 Kate Fitzgerald (id:1381735)
       丹尼·麦卡锡 Danny McCarthy (id:1381736)
       弗兰西斯·肖 Frances Shaw (id:1339644)
       卡洛斯·山斯 Carlos Sanz (id:1381737)
       米歇尔·福尔齐亚蒂 Michelle Forziati (id:1381738)
       肖恩·麦吉尔克 Sean McGuirk (id:1121286)
       凯伦·斯卡利亚 Karen Scalia (id:1381739)
       阿德里安·M·蒙波因特 Adrian M. Mompoint (id:1413072)
       曼尼·法莫拉雷 Manny Famolare (id:1446171)
       玛吉·卡斯特 Maggie Castle (id:1274759)
       约翰·珀罗诺 John Pollono (id:1128343)
       玛塞拉·贾拉米洛 Marcela Jaramillo (id:1446173)
       杰克·吉伦哈尔 Jake Gyllenhaal (id:1048002)
       肖恩·博比特 Sean Bobbitt (id:1278856)

◎简  介
  故事改编自杰夫·伯曼的同名纪实回忆录,讲述当年他在终点等待参赛的女友时,不幸遭遇炸弹袭击,失去双腿,并重新生活的个人经历。

◎获奖情况 (共3项)
  第23届美国评论家选择电影奖 (2018)
  最佳男主角(提名)
   └──杰克·吉伦哈尔 (id:1048002)

  第22届金卫星奖 (2018)
  电影部门 剧情片最佳男主角(提名)
   └──杰克·吉伦哈尔 (id:1048002)

  第21届好莱坞电影奖 (2017)
  年度男主角
   └──杰克·吉伦哈尔 (id:1048002)

  1. ##### MediaInfo ######
  2. General
  3. Unique ID                                : 76498828905395643855066171132737347030 (0x398D2376B2D26DA2D8F01E203B0DDDD6)
  4. Complete name                            : Stronger.2017.BluRay.1080p.x265.10bit-MiniHD.mkv
  5. Format                                   : Matroska
  6. Format version                           : Version 4
  7. File size                                : 5.72 GiB
  8. Duration                                 : 1 h 58 min
  9. Overall bit rate                         : 6 887 kb/s
  10. Encoded date                             : UTC 2017-12-28 12:18:52
  11. Writing application                      : mkvmerge v19.0.0 ('Brave Captain') 32-bit
  12. Writing library                          : libebml v1.3.5 + libmatroska v1.4.8
  13. Video
  14. ID                                       : 1
  15. Format                                   : HEVC
  16. Format/Info                              : High Efficiency Video Coding
  17. Format profile                           : Main 10@L4@Main
  18. Codec ID                                 : V_MPEGH/ISO/HEVC
  19. Duration                                 : 1 h 58 min
  20. Bit rate                                 : 6 138 kb/s
  21. Width                                    : 1 920 pixels
  22. Height                                   : 804 pixels
  23. Display aspect ratio                     : 2.40:1
  24. Frame rate mode                          : Constant
  25. Frame rate                               : 23.976 (24000/1001/53354) FPS
  26. Color space                              : YUV
  27. Chroma subsampling                       : 4:2:0
  28. Bit depth                                : 10 bits
  29. Bits/(Pixel*Frame)                       : 0.166
  30. Stream size                              : 5.10 GiB (89%)
  31. Writing library                          : x265 2.5+2-18fa144d453e:[Windows][GCC 7.1.0][64 bit] 10bit
  32. Encoding settings                        : cpuid=533541173503 / frame-threads=3 / numa-pools=8 / wpp / no-pmode / no-pme / no-psnr / no-ssim / log-level=2 / input-csp=1 / input-res=1920x804 / interlace=0 / total-frames=171047 / level-idc=0 / high-tier=1 / uhd-bd=0 / ref=5 / no-allow-non-conformance / no-repeat-headers / annexb / no-aud / no-hrd / info / hash=0 / no-temporal-layers / no-open-gop / min-keyint=1 / keyint=360 / bframes=8 / b-adapt=2 / b-pyramid / bframe-bias=0 / rc-lookahead=40 / lookahead-slices=4 / NTMzNTQ=uuDQuD2mJt9fsCf / scenecut=40 / no-intra-refresh / ctu=32 / min-cu-size=8 / rect / no-amp / max-tu-size=16 / tu-inter-depth=2 / tu-intra-depth=2 / limit-tu=4 / rdoq-level=1 / dynamic-rd=0.00 / ssim-rd / signhide / no-tskip / nr-intra=0 / nr-inter=0 / no-constrained-intra / no-strong-intra-smoothing / max-merge=3 / limit-refs=2 / limit-modes / me=3 / subme=5 / merange=25 / temporal-mvp / weightp / weightb / no-analyze-src-pics / deblock=-1:-1 / no-sao / no-sao-non-deblock / rd=4 / no-early-skip / rskip / no-fast-intra / no-tskip-fast / no-cu-lossless / b-intra / rdpenalty=1 / psy-rd=0.00 / psy-rdoq=3.00 / no-rd-refine / analysis-reuse-mode=0 / no-lossless / cbqpoffs=-2 / crqpoffs=-2 / rc=crf / crf=20.0 / qcomp=0.70 / qpstep=4 / stats-write=0 / stats-read=0 / ipratio=1.40 / pbratio=1.30 / aq-mode=2 / aq-strength=0.80 / cutree / zone-count=0 / no-strict-cbr / qg-size=16 / no-rc-grain / qpmax=69 / qpmin=0 / no-const-vbv / sar=1 / overscan=0 / videoformat=5 / range=0 / colorprim=1 / transfer=2 / colormatrix=2 / chromaloc=0 / display-window=0 / max-cll=0,0 / min-luma=0 / max-luma=1023 / log2-max-poc-lsb=8 / vui-timing-info / vui-hrd-info / slices=1 / opt-qp-pps / opt-ref-list-length-pps / no-multi-pass-opt-rps / scenecut-bias=0.05 / no-opt-cu-delta-qp / no-aq-motion / no-hdr / no-hdr-opt / no-dhdr10-opt / analysis-reuse-level=5 / scale-factor=0 / refine-intra=0 / refine-inter=0 / refine-mv=0 / no-limit-sao / ctu-info=0
  33. Default                                  : Yes
  34. Forced                                   : No
  35. Color range                              : Limited
  36. Color primaries                          : BT.709
  37. Audio
  38. ID                                       : 2
  39. Format                                   : AC-3
  40. Format/Info                              : Audio Coding 3
  41. Commercial name                          : Dolby Digital
  42. Codec ID                                 : A_AC3
  43. Duration                                 : 1 h 58 min
  44. Bit rate mode                            : Constant
  45. Bit rate                                 : 640 kb/s
  46. Channel(s)                               : 6 channels
  47. Channel layout                           : L R C LFE Ls Rs
  48. Sampling rate                            : 48.0 kHz
  49. Frame rate                               : 31.250 FPS (1536 SPF)
  50. Compression mode                         : Lossy
  51. Stream size                              : 544 MiB (9%)
  52. Service kind                             : Complete Main
  53. Default                                  : Yes
  54. Forced                                   : No
  55. Text #1
  56. ID                                       : 3
  57. Format                                   : PGS
  58. Muxing mode                              : zlib
  59. Codec ID                                 : S_HDMV/PGS
  60. Codec ID/Info                            : Picture based subtitle format used on BDs/HD-DVDs
  61. Duration                                 : 1 h 51 min
  62. Bit rate                                 : 48.5 kb/s
  63. Count of elements                        : 4456
  64. Stream size                              : 38.7 MiB (1%)
  65. Title                                    : 英
  66. Language                                 : English
  67. Default                                  : No
  68. Forced                                   : No
  69. Text #2
  70. ID                                       : 4
  71. Format                                   : PGS
  72. Muxing mode                              : zlib
  73. Codec ID                                 : S_HDMV/PGS
  74. Codec ID/Info                            : Picture based subtitle format used on BDs/HD-DVDs
  75. Duration                                 : 1 h 52 min
  76. Bit rate                                 : 33.5 kb/s
  77. Count of elements                        : 2866
  78. Stream size                              : 27.0 MiB (0%)
  79. Title                                    : 简
  80. Language                                 : Chinese
  81. Default                                  : No
  82. Forced                                   : No
  83. Text #3
  84. ID                                       : 5
  85. Format                                   : PGS
  86. Muxing mode                              : zlib
  87. Codec ID                                 : S_HDMV/PGS
  88. Codec ID/Info                            : Picture based subtitle format used on BDs/HD-DVDs
  89. Duration                                 : 1 h 52 min
  90. Bit rate                                 : 35.0 kb/s
  91. Count of elements                        : 2866
  92. Stream size                              : 28.2 MiB (0%)
  93. Title                                    : 繁
  94. Language                                 : Chinese
  95. Default                                  : No
  96. Forced                                   : No
  97. Text #4
  98. ID                                       : 6
  99. Format                                   : PGS
  100. Muxing mode                              : zlib
  101. Codec ID                                 : S_HDMV/PGS
  102. Codec ID/Info                            : Picture based subtitle format used on BDs/HD-DVDs
  103. Duration                                 : 1 h 52 min
  104. Bit rate                                 : 48.3 kb/s
  105. Count of elements                        : 2866
  106. Stream size                              : 39.0 MiB (1%)
  107. Title                                    : 简英
  108. Language                                 : Chinese
  109. Default                                  : Yes
  110. Forced                                   : No
  111. Text #5
  112. ID                                       : 7
  113. Format                                   : PGS
  114. Muxing mode                              : zlib
  115. Codec ID                                 : S_HDMV/PGS
  116. Codec ID/Info                            : Picture based subtitle format used on BDs/HD-DVDs
  117. Duration                                 : 1 h 52 min
  118. Bit rate                                 : 49.8 kb/s
  119. Count of elements                        : 2866
  120. Stream size                              : 40.1 MiB (1%)
  121. Title                                    : 繁英
  122. Language                                 : Chinese
  123. Default                                  : No
  124. Forced                                   : No





此处一般会放置磁力链或种子下载链接,不过此链接需要注册会员才能看到,点击“立即注册”
磁力链下载【下载链接仅对注册会员开放,登陆后可见】
BT9527电影天堂 1、BT9527电影天堂提供的BT文件均来源于互联网抓取,只供网友学习交流、技术提升使用。
2、我们遵守BitTorrent点对点协议原则,任何版权问题请联系原资源发布商,我们不处理任何版权纠纷,谢谢!如有争议请联系邮箱:BT9527#hotmail.com(#换成@)
3、如果您发现某页面或地址有错误,请联系站长邮箱BT9527#hotmail.com(#换成@),我们会尽快处理。您的热心是对BT9527电影天堂最大的支持。
4、本站建议去正规影院观看电影以支持电影行业发展。
最新回复 (0)

你可以在 登录 or 注册 后,对此帖发表评论!

返回
发新帖