在路上[中英字幕].On.the.Road.2012.BluRay.1080p.x265.10bit-MiniHD 7.99GB

版主小s 3天前 43

✔资源类型:暂未分类   ✔电影年份:2012   ✔电影地区:欧美   ✔电影分类:剧情

◎译  名 在路上 / 浪荡青春(港) / 浪荡世代(台)
◎片  名 On the Road
◎年  代 2012
◎产  地 美国 / 英国 / 法国 / 巴西
◎类  别 剧情 / 冒险
◎语  言 英语 / 法语
◎上映日期 2012-05-23(法国)
◎IMDb链接 https://www.imdb.com/title/tt0337692/
◎豆瓣评分 7.1/10 (33177人评价)
◎豆瓣链接 https://movie.douban.com/subject/1907465/
◎片  长 124分钟
◎导  演 沃尔特·塞勒斯 Walter Salles (id:1000292)
◎编  剧 何塞·里维拉 Jose Rivera (id:1055180)
       杰克·凯鲁亚克 Jack Kerouac (id:1032468)
       约瑟·里韦拉 Jose Rivera (id:1209408)
◎演  员 萨姆·赖利 Sam Riley (id:1013934)
       加内特·赫德兰 Garrett Hedlund (id:1047958)
       克里斯汀·斯图尔特 Kristen Stewart (id:1012533)
       艾米·亚当斯 Amy Adams (id:1022563)
       汤姆·斯图里奇 Tom Sturridge (id:1274492)
       丹尼·摩根 Danny Morgan (id:1033418)
       艾莉丝·布拉加 Alice Braga (id:1000057)
       伊丽莎白·莫斯 Elisabeth Moss (id:1022566)
       克斯汀·邓斯特 Kirsten Dunst (id:1054429)
       维果·莫腾森 Viggo Mortensen (id:1054520)
       史蒂夫·布西密 Steve Buscemi (id:1054409)
       泰伦斯·霍华德 Terrence Howard (id:1055928)
       卡内赫迪奥·霍恩 Kaniehtiio Horn (id:1328818)
       克里斯·拉茨 Chris Ratz (id:1333608)
       丹尼尔·卡什 Daniel Kash (id:1108474)
       乔伊·克莱恩 Joey Klein (id:1336869)
       弗兰克·方丹 Frank Fontaine (id:1083331)
       丹·贝尔尼 Dan Beirne (id:1353461)
       凯尔·盖特豪斯 Kyle Gatehouse (id:1374791)
       弗朗西斯·福特·科波拉 Francis Ford Coppola (id:1054419)
       格斯·范·桑特 Gus Van Sant (id:1041021)
       沃尔特·塞勒斯 Walter Salles (id:1000292)
       马兰·卡尔米兹 Marin Karmitz (id:1028962)
       纳塔那·卡米兹 Nathana?l Karmitz (id:1338801)
       瑞贝卡·耶得汉姆 Rebecca Yeldham (id:1050455)
       古斯塔沃·桑多拉拉 Gustavo Santaolalla (id:1023055)
       菲利普·格拉斯 Philip Glass (id:1007135)

◎简  介
  赛尔(萨姆·赖利 Sam Riley 饰) 是一个追寻灵感,渴望遨游的年轻作家,迪安·莫里亚蒂(加内特·赫德兰 Garrett Hedlund 饰)则是个风流率性,曾几进监狱的不安少年,还娶了16岁的浪荡姑娘玛丽露(克里斯汀·斯图尔特 Kristen Stewart 饰)为妻。然而赛尔十分喜欢迪安充满激情的生活,迪安则钦佩赛尔的风度与学识,三个迷恋自由的年轻人结识后,很快便决定抛下生活,一同行走在路上。他们一路搭便车,吸大麻,行时高歌,醉时沉思。在穿越美国东西的大道上,放浪形骸,追寻自我,燃烧青春。                                    
                                影片改编自美国作家杰克·凯鲁亚克的自传性同名小说,该小说被奉为“跨掉的一代”的圣经。

◎获奖情况 (共5项)
  第65届戛纳电影节 (2012)
  主竞赛单元 金棕榈奖(提名)
   └──沃尔特·塞勒斯 (id:1000292)

  第84届美国国家评论协会奖 (2013)
  十佳独立电影

  第3届豆瓣电影鑫像奖 (2013)
  豆渣单元 最渣影片(外语)(提名)
  豆渣单元 最渣男演员(外语)(提名)
   └──萨姆·赖利 (id:1013934)
  鑫豆单元 最佳落选影片(提名)

  1. ##### MediaInfo ######
  2. General
  3. Unique ID                                : 336034473613509140144500888169416408990 (0xFCCDE2B0A4BCB4A4431048DBAF02BF9E)
  4. Complete name                            : On.the.Road.2012.BluRay.1080p.x265.10bit-MiniHD.mkv
  5. Format                                   : Matroska
  6. Format version                           : Version 4
  7. File size                                : 7.99 GiB
  8. Duration                                 : 2 h 19 min
  9. Overall bit rate                         : 8 187 kb/s
  10. Encoded date                             : UTC 2018-06-30 02:44:14
  11. Writing application                      : mkvmerge v24.0.0 ('Beyond The Pale') 64-bit
  12. Writing library                          : libebml v1.3.6 + libmatroska v1.4.9
  13. Video
  14. ID                                       : 1
  15. Format                                   : HEVC
  16. Format/Info                              : High Efficiency Video Coding
  17. Format profile                           : Main 10@L4@Main
  18. Codec ID                                 : V_MPEGH/ISO/HEVC
  19. Duration                                 : 2 h 19 min
  20. Bit rate                                 : 7 521 kb/s
  21. Width                                    : 1 920 pixels
  22. Height                                   : 816 pixels
  23. Display aspect ratio                     : 2.35:1
  24. Frame rate mode                          : Constant
  25. Frame rate                               : 24.000 FPS
  26. Color space                              : YUV
  27. Chroma subsampling                       : 4:2:0
  28. Bit depth                                : 10 bits
  29. Bits/(Pixel*Frame)                       : 0.200
  30. Stream size                              : 7.34 GiB (92%)
  31. Writing library                          : x265 2.7+1-2aa737a99f51:[Windows][GCC 7.3.0][64 bit] 10bit
  32. Encoding settings                        : cpuid=533541173503 / frame-threads=4 / numa-pools=16 / wpp / no-pmode / no-pme / no-psnr / no-ssim / log-level=2 / input-csp=1 / input-res=1920x816 / interlace=0 / total-frames=201169 / level-idc=0 / high-tier=1 / uhd-bd=0 / ref=5 / no-allow-non-conformance / no-repeat-headers / annexb / no-aud / no-hrd / info / hash=0 / no-temporal-layers / no-open-gop / min-keyint=1 / keyint=360 / gop-lookahead=0 / bframes=8 / b-adapt=2 / b-pyramid / bframe-bias=0 / rc-lookahead=60 / lookahead-slices=4 / NTMzNTQ=uuDQuD2mJt9fsCf / scenecut=40 / radl=0 / no-intra-refresh / ctu=32 / min-cu-size=8 / rect / no-amp / max-tu-size=16 / tu-inter-depth=2 / tu-intra-depth=2 / limit-tu=4 / rdoq-level=1 / dynamic-rd=0.00 / no-ssim-rd / signhide / no-tskip / nr-intra=0 / nr-inter=0 / no-constrained-intra / no-strong-intra-smoothing / max-merge=3 / limit-refs=2 / limit-modes / me=3 / subme=5 / merange=25 / temporal-mvp / weightp / weightb / no-analyze-src-pics / deblock=-1:-1 / no-sao / no-sao-non-deblock / rd=4 / no-early-skip / rskip / no-fast-intra / no-tskip-fast / no-cu-lossless / b-intra / no-splitrd-skip / rdpenalty=1 / psy-rd=2.00 / psy-rdoq=5.00 / no-rd-refine / no-lossless / cbqpoffs=-2 / crqpoffs=-2 / rc=crf / crf=22.0 / qcomp=0.65 / qpstep=4 / stats-write=0 / stats-read=0 / ipratio=1.40 / pbratio=1.30 / aq-mode=1 / aq-strength=0.70 / cutree / zone-count=0 / no-strict-cbr / qg-size=16 / no-rc-grain / qpmax=69 / qpmin=0 / no-const-vbv / sar=1 / overscan=0 / videoformat=5 / range=0 / colorprim=1 / transfer=2 / colormatrix=2 / chromaloc=0 / display-window=0 / max-cll=0,0 / min-luma=0 / max-luma=1023 / log2-max-poc-lsb=8 / vui-timing-info / vui-hrd-info / slices=1 / no-opt-qp-pps / no-opt-ref-list-length-pps / no-multi-pass-opt-rps / scenecut-bias=0.05 / no-opt-cu-delta-qp / no-aq-motion / no-hdr / no-hdr-opt / no-dhdr10-opt / analysis-reuse-level=5 / scale-factor=0 / refine-intra=0 / refine-inter=0 / refine-mv=0 / no-limit-sao / ctu-info=0 / no-lowpass-dct / refine-mv-type=0 / copy-pic=1
  33. Default                                  : Yes
  34. Forced                                   : No
  35. Color range                              : Limited
  36. Color primaries                          : BT.709
  37. Audio
  38. ID                                       : 2
  39. Format                                   : AC-3
  40. Format/Info                              : Audio Coding 3
  41. Commercial name                          : Dolby Digital
  42. Codec ID                                 : A_AC3
  43. Duration                                 : 2 h 19 min
  44. Bit rate mode                            : Constant
  45. Bit rate                                 : 640 kb/s
  46. Channel(s)                               : 6 channels
  47. Channel layout                           : L R C LFE Ls Rs
  48. Sampling rate                            : 48.0 kHz
  49. Frame rate                               : 31.250 FPS (1536 SPF)
  50. Compression mode                         : Lossy
  51. Stream size                              : 639 MiB (8%)
  52. Language                                 : English
  53. Service kind                             : Complete Main
  54. Default                                  : Yes
  55. Forced                                   : No
  56. Text #1
  57. ID                                       : 3
  58. Format                                   : PGS
  59. Muxing mode                              : zlib
  60. Codec ID                                 : S_HDMV/PGS
  61. Codec ID/Info                            : Picture based subtitle format used on BDs/HD-DVDs
  62. Duration                                 : 1 h 27 min
  63. Bit rate                                 : 30.6 kb/s
  64. Count of elements                        : 1524
  65. Stream size                              : 19.1 MiB (0%)
  66. Language                                 : English
  67. Default                                  : Yes
  68. Forced                                   : No
  69. Text #2
  70. ID                                       : 4
  71. Format                                   : PGS
  72. Muxing mode                              : zlib
  73. Codec ID                                 : S_HDMV/PGS
  74. Codec ID/Info                            : Picture based subtitle format used on BDs/HD-DVDs
  75. Duration                                 : 2 h 12 min
  76. Bit rate                                 : 25.7 kb/s
  77. Count of elements                        : 2581
  78. Stream size                              : 24.3 MiB (0%)
  79. Language                                 : Chinese
  80. Default                                  : No
  81. Forced                                   : No
  82. Text #3
  83. ID                                       : 5
  84. Format                                   : PGS
  85. Muxing mode                              : zlib
  86. Codec ID                                 : S_HDMV/PGS
  87. Codec ID/Info                            : Picture based subtitle format used on BDs/HD-DVDs
  88. Duration                                 : 17 min 21 s
  89. Bit rate                                 : 32.8 kb/s
  90. Count of elements                        : 405
  91. Stream size                              : 4.07 MiB (0%)
  92. Language                                 : Chinese
  93. Default                                  : No
  94. Forced                                   : No





此处一般会放置磁力链或种子下载链接,不过此链接需要注册会员才能看到,点击“立即注册”
磁力链下载【下载链接仅对注册会员开放,登陆后可见】
BT9527电影天堂 1、BT9527电影天堂提供的BT文件均来源于互联网抓取,只供网友学习交流、技术提升使用。
2、我们遵守BitTorrent点对点协议原则,任何版权问题请联系原资源发布商,我们不处理任何版权纠纷,谢谢!如有争议请联系邮箱:BT9527#hotmail.com(#换成@)
3、如果您发现某页面或地址有错误,请联系站长邮箱BT9527#hotmail.com(#换成@),我们会尽快处理。您的热心是对BT9527电影天堂最大的支持。
4、本站建议去正规影院观看电影以支持电影行业发展。
最新回复 (0)

你可以在 登录 or 注册 后,对此帖发表评论!

返回
发新帖