喜福会[简繁字幕].The.Joy.Luck.Club.1993.BluRay.1080p.x265.10bit-MiniHD 3.59GB

版主小s 6天前 47

✔资源类型:暂未分类   ✔电影年份:更 早   ✔电影地区:欧美   ✔电影分类:剧情

◎译  名 喜福会 / El Club de la Buena Estrella / Le Club de la chance
◎片  名 The Joy Luck Club
◎年  代 1993
◎产  地 美国
◎类  别 剧情 / 爱情
◎语  言 英语 / 汉语普通话
◎上映日期 1993-09-08
◎IMDb链接 https://www.imdb.com/title/tt0107282/
◎豆瓣评分 8.4/10 (45778人评价)
◎豆瓣链接 https://movie.douban.com/subject/1299923/
◎片  长 139 分钟
◎导  演 王颖 Wayne Wang (id:1014195)
◎编  剧 谭恩美 Amy Tan (id:1005525)
       罗纳德·巴斯 Ronald Bass (id:1000687)
       林立仁 Debbie Lum (id:1350854)
◎演  员 周采芹 Tsai Chin (id:1036870)
       温明娜 Ming-Na Wen (id:1041128)
       俞飞鸿 Faye Yu (id:1014618)
       邬君梅 Vivian Wu (id:1004773)
       卢燕 Lisa Lu (id:1014332)
       丁一 Yi Ding (id:1282460)
       奚美娟 Meijuan Xi (id:1001714)
       吴天明 Tianming Wu (id:1168676)
       安德鲁·麦卡锡 Andrew McCarthy (id:1036345)
       王盛德 Russell Wong (id:1032117)
       富田谭玲 Tamlyn Tomita (id:1055357)
       赵家玲 Rosalind Chao (id:1027926)
       劳伦·汤姆 Lauren Tom (id:1025242)
       黄自强 Victor Wong (id:1163658)
       弗兰丝·纽恩 France Nuyen (id:1022847)
       黄敏 Irene Ng (id:1128061)
       冀朝理 Chao Li Chi (id:1002893)
       翘征 Kieu Chinh (id:1326406)
       Melanie Chang Melanie Chang (id:1280465)
       Mai Vu Mai Vu (id:1290754)
       宋静秀 Lucille Soong (id:1149423)
       奥利佛·斯通 Oliver Stone (id:1054513)
       王颖 Wayne Wang (id:1014195)
       杨燕子 Janet Yang (id:1301410)
       帕特里克·马基 Patrick Markey (id:1291017)
       蕾切尔·波特曼 Rachel Portman (id:1037009)
       海蒂·莱维特 Heidi Levitt (id:1289921)
       里萨·布雷蒙·加西亚 Risa Bramon Garcia (id:1284503)
       唐纳德·格雷厄姆·伯特 Donald Graham Burt (id:1279698)
       瓦利·奥雷利 Valli O'Reilly (id:1293436)
       特里·巴利尔 Terry Baliel (id:1277776)
       马蒂亚斯·阿尔瓦雷斯 Matias Alvarez (id:1277107)
       廖凤平 Jessinta Liu (id:1377234)

◎简  介
  晶妹(温明娜 饰)的母亲宿愿(翘征 饰)生前讲过一个有关鹅毛的故事。宿愿过世后,好友林冬(周采芹 饰)、安梅(卢燕 饰)、映映(阮兰丝 饰)联系上了宿愿早年失散的双胞胎女儿。晶妹决定远渡重洋与两位姐姐相认,众人齐聚宿愿家为晶妹践行。聚会上,林冬、映映、安梅各自忆起了被母(奚美娟 饰)抛弃、杀死亲子、等候母亲(邬君梅 饰)的往事,而三人女儿钟韦弗利(富田谭玲 饰)、琳娜(劳伦·汤姆 饰)、罗丝(赵家玲 饰)的婚姻也深受各自母亲的影响。聚会后,晶妹的父亲(冀朝理 饰)讲述了宿愿遗弃双胞胎的真相……

◎获奖情况 (共1项)
  第48届英国电影学院奖 (1995)
  电影奖 最佳改编剧本(提名)

  1. ##### MediaInfo ######
  2. General
  3. Unique ID                                : 199443954533987214286740906765221980385 (0x960B82283B8DBEC29B767C8F673568E1)
  4. Complete name                            : The.Joy.Luck.Club.1993.BluRay.1080p.x265.10bit-MiniHD.mkv
  5. Format                                   : Matroska
  6. Format version                           : Version 4
  7. File size                                : 3.59 GiB
  8. Duration                                 : 2 h 19 min
  9. Overall bit rate                         : 3 696 kb/s
  10. Encoded date                             : UTC 2018-03-12 19:09:55
  11. Writing application                      : mkvmerge v20.0.0 ('I Am The Sun') 64-bit
  12. Writing library                          : libebml v1.3.5 + libmatroska v1.4.8
  13. Video
  14. ID                                       : 1
  15. Format                                   : HEVC
  16. Format/Info                              : High Efficiency Video Coding
  17. Format profile                           : Main 10@L4@Main
  18. Codec ID                                 : V_MPEGH/ISO/HEVC
  19. Duration                                 : 2 h 19 min
  20. Bit rate                                 : 2 983 kb/s
  21. Width                                    : 1 920 pixels
  22. Height                                   : 1 038 pixels
  23. Display aspect ratio                     : 1.85:1
  24. Frame rate mode                          : Constant
  25. Frame rate                               : 23.976 (24000/1001/53354) FPS
  26. Color space                              : YUV
  27. Chroma subsampling                       : 4:2:0
  28. Bit depth                                : 10 bits
  29. Bits/(Pixel*Frame)                       : 0.062
  30. Stream size                              : 2.90 GiB (81%)
  31. Writing library                          : x265 2.7+1-2aa737a99f51:[Windows][GCC 7.3.0][64 bit] 10bit
  32. Encoding settings                        : cpuid=533541173503 / frame-threads=3 / numa-pools=8 / wpp / no-pmode / no-pme / no-psnr / no-ssim / log-level=2 / csv / csv-log-level=0 / input-csp=1 / input-res=1920x1038 / interlace=0 / total-frames=199955 / level-idc=0 / high-tier=1 / uhd-bd=0 / ref=5 / no-allow-non-conformance / no-repeat-headers / annexb / no-aud / no-hrd / info / hash=0 / no-temporal-layers / no-open-gop / min-keyint=1 / keyint=360 / gop-lookahead=0 / bframes=9 / b-adapt=2 / b-pyramid / bframe-bias=0 / rc-lookahead=60 / lookahead-slices=4 / NTMzNTQ=uuDQuD2mJt9fsCf / scenecut=40 / radl=0 / no-intra-refresh / ctu=32 / min-cu-size=8 / rect / no-amp / max-tu-size=16 / tu-inter-depth=2 / tu-intra-depth=2 / limit-tu=4 / rdoq-level=1 / dynamic-rd=0.00 / ssim-rd / signhide / no-tskip / nr-intra=0 / nr-inter=0 / no-constrained-intra / no-strong-intra-smoothing / max-merge=3 / limit-refs=2 / limit-modes / me=3 / subme=5 / merange=25 / temporal-mvp / weightp / weightb / no-analyze-src-pics / deblock=-1:-1 / no-sao / no-sao-non-deblock / rd=4 / no-early-skip / rskip / no-fast-intra / no-tskip-fast / no-cu-lossless / b-intra / no-splitrd-skip / rdpenalty=1 / psy-rd=0.00 / psy-rdoq=5.00 / no-rd-refine / no-lossless / cbqpoffs=-2 / crqpoffs=-2 / rc=crf / crf=19.5 / qcomp=0.70 / qpstep=4 / stats-write=0 / stats-read=0 / ipratio=1.40 / pbratio=1.30 / aq-mode=1 / aq-strength=0.80 / cutree / zone-count=0 / no-strict-cbr / qg-size=16 / no-rc-grain / qpmax=69 / qpmin=0 / no-const-vbv / sar=0 / overscan=0 / videoformat=5 / range=0 / colorprim=1 / transfer=2 / colormatrix=2 / chromaloc=0 / display-window=0 / max-cll=0,0 / min-luma=0 / max-luma=1023 / log2-max-poc-lsb=8 / vui-timing-info / vui-hrd-info / slices=1 / no-opt-qp-pps / no-opt-ref-list-length-pps / no-multi-pass-opt-rps / scenecut-bias=0.05 / no-opt-cu-delta-qp / no-aq-motion / no-hdr / no-hdr-opt / no-dhdr10-opt / analysis-reuse-level=5 / scale-factor=0 / refine-intra=0 / refine-inter=0 / refine-mv=0 / no-limit-sao / ctu-info=0 / no-lowpass-dct / refine-mv-type=0 / copy-pic=1
  33. Language                                 : Chinese
  34. Default                                  : Yes
  35. Forced                                   : No
  36. Color range                              : Limited
  37. Color primaries                          : BT.709
  38. Audio
  39. ID                                       : 2
  40. Format                                   : AC-3
  41. Format/Info                              : Audio Coding 3
  42. Commercial name                          : Dolby Digital
  43. Codec ID                                 : A_AC3
  44. Duration                                 : 2 h 19 min
  45. Bit rate mode                            : Constant
  46. Bit rate                                 : 640 kb/s
  47. Channel(s)                               : 6 channels
  48. Channel layout                           : L R C LFE Ls Rs
  49. Sampling rate                            : 48.0 kHz
  50. Frame rate                               : 31.250 FPS (1536 SPF)
  51. Compression mode                         : Lossy
  52. Stream size                              : 637 MiB (17%)
  53. Title                                    : 英语
  54. Language                                 : English
  55. Service kind                             : Complete Main
  56. Default                                  : Yes
  57. Forced                                   : No
  58. Text #1
  59. ID                                       : 3
  60. Format                                   : PGS
  61. Muxing mode                              : zlib
  62. Codec ID                                 : S_HDMV/PGS
  63. Codec ID/Info                            : Picture based subtitle format used on BDs/HD-DVDs
  64. Title                                    : 繁-英
  65. Language                                 : Chinese
  66. Default                                  : Yes
  67. Forced                                   : No
  68. Text #2
  69. ID                                       : 4
  70. Format                                   : PGS
  71. Muxing mode                              : zlib
  72. Codec ID                                 : S_HDMV/PGS
  73. Codec ID/Info                            : Picture based subtitle format used on BDs/HD-DVDs
  74. Title                                    : 简-英
  75. Language                                 : Chinese
  76. Default                                  : No
  77. Forced                                   : No
  78. Menu
  79. 00:00:00.000                             : en:Chapter 01
  80. 00:17:35.763                             : en:Chapter 02
  81. 00:33:25.837                             : en:Chapter 03
  82. 00:51:07.481                             : en:Chapter 04
  83. 01:02:01.843                             : en:Chapter 05
  84. 01:14:41.810                             : en:Chapter 06
  85. 01:23:06.564                             : en:Chapter 07
  86. 01:34:50.059                             : en:Chapter 08
  87. 01:49:37.279                             : en:Chapter 09
  88. 01:59:41.799                             : en:Chapter 10





此处一般会放置磁力链或种子下载链接,不过此链接需要注册会员才能看到,点击“立即注册”
磁力链下载【下载链接仅对注册会员开放,登陆后可见】
BT9527电影天堂 1、BT9527电影天堂提供的BT文件均来源于互联网抓取,只供网友学习交流、技术提升使用。
2、我们遵守BitTorrent点对点协议原则,任何版权问题请联系原资源发布商,我们不处理任何版权纠纷,谢谢!如有争议请联系邮箱:BT9527#hotmail.com(#换成@)
3、如果您发现某页面或地址有错误,请联系站长邮箱BT9527#hotmail.com(#换成@),我们会尽快处理。您的热心是对BT9527电影天堂最大的支持。
4、本站建议去正规影院观看电影以支持电影行业发展。
最新回复 (0)

你可以在 登录 or 注册 后,对此帖发表评论!

返回