命运规划局[简英字幕].The.Adjustment.Bureau.2011.BluRay.1080p.x265.10bit-MiniHD 6.33GB

版主小s 12天前 41

✔资源类型:暂未分类   ✔电影年份:2011   ✔电影地区:欧美   ✔电影分类:爱情

◎译  名 命运规划局 / 联邦检察局 / 天网逆缘(港) / 联邦调查局 / 调整局
◎片  名 The Adjustment Bureau
◎年  代 2011
◎产  地 美国
◎类  别 爱情 / 科幻
◎语  言 英语
◎上映日期 2011-02-26(贝尔格莱德电影节) / 2011-03-04(美国)
◎IMDb链接 https://www.imdb.com/title/tt1385826/
◎豆瓣评分 7.0/10 (82700人评价)
◎豆瓣链接 https://movie.douban.com/subject/3569943/
◎片  长 106分钟
◎导  演 乔治·诺非 George Nolfi (id:1322185)
◎编  剧 乔治·诺非 George Nolfi (id:1322185)
       菲利普·迪克 Philip K. Dick (id:1036650)
◎演  员 马特·达蒙 Matt Damon (id:1054443)
       艾米莉·布朗特 Emily Blunt (id:1041022)
       弗洛伦斯·卡斯特里纳 Florence Kastriner (id:1403832)
       迈克尔·凯利 Michael Kelly (id:1104615)
       菲莉丝·麦克布赖德 Phyllis MacBryde (id:1403833)
       查克·斯卡伯勒 Chuck Scarborough (id:1042188)
       乔恩·斯图尔特 Jon Stewart (id:1036522)
       迈克·布隆伯格 Michael Bloomberg (id:1005603)
       安东尼·麦凯 Anthony Mackie (id:1027217)
       格雷戈里·雷 Gregory Lay (id:1225140)
       詹姆斯·卡维尔 James Carville (id:1041322)
       Mary Matalin Mary Matalin (id:1121348)
       约翰·斯拉特里 John Slattery (id:1022661)
       阿曼达·沃伦 Amanda Warren (id:1345796)
       安东尼·瑞维瓦 Anthony Ruivivar (id:1145203)
       法妮勒埃文斯 Venida Evans (id:1081942)
       法布里齐奥·布里恩扎 Fabrizio Brienza (id:1068062)
       大卫·毕逊斯 David Bishins (id:1278683)
       杨罗布 Rob Yang (id:1397751)
       詹妮弗·艾莉 Jennifer Ehle (id:1012506)
       约翰尼·希科 Johnny Cicco (id:1070766)
       佩德罗·帕斯卡 Pedro Pascal (id:1329628)
       玛德琳·奥布莱特 Madeleine Albright (id:1170288)
       皮特·J.费尔南德斯 Peter J. Fernandez (id:1081742)
       Peter Epstein Peter Epstein (id:1283250)
       哈罗德·布里吉佛斯 Harold Bridgeforth (id:1371475)
       唐尼·科沙瓦茨 Donnie Keshawarz (id:1216455)
       马米·科西科 Marmee Cosico (id:1263189)
       普鲁瓦·贝迪 Purva Bedi (id:1066763)
       Bejay Rose Bejay Rose (id:1449283)
       娜塔莉·卡特 Natalie Carter (id:1406255)
       布莱恩·马霍尼 Brian Mahoney (id:1346533)
       David Macerelli David Macerelli (id:1173858)
        Kirk LaSalle (id:1247108)
       Jesse Jackson Jesse Jackson (id:1107867)
       罗丝玛丽·霍华德 Rosemary Howard (id:1393141)
        Byron Habinsky (id:1260660)
       特伦斯·斯坦普 Terence Stamp (id:1010570)
       金大贤 Daniel Dae Kim (id:1022618)
       Wayne Scott Miller Wayne Scott Miller (id:1200575)
       Lawrence R. Leritz Lawrence R. Leritz (id:1054941)
       贾森·克拉维茨 Jason Kravits (id:1054954)
       乔尔·德·拉·冯特 Joel de la Fuente (id:1089839)
       大卫·阿伦·伯施理 David Alan Basche (id:1049759)
       Meghan Andrews Meghan Andrews (id:1060351)
       肖恩·麦克雷 Shane McRae (id:1114978)
       布莱恩·黑利 Brian Haley (id:1005021)
       艾力克·克莱普科 Eric Kripke (id:1045134)
       托马斯·纽曼 Thomas Newman (id:1027939)
       约翰·托尔 John Toll (id:1276189)
       卡西娅·瓦利卡-麦蒙 Kasia Walicka-Maimone (id:1290762)

◎简  介
  本影片根据菲利普·K·迪克的短篇小说《规划小组(Adjustment Team)》改编。                                    
                                天生就适合走上政治舞台的大卫·诺里斯(马特·达蒙 Matt Damon 饰),是一名政坛的明日之星,他在信心满满的参选纽约州参议员期间,意外认识了认识美丽的芭蕾女演员爱丽丝(艾米莉·布朗特 Emily Blunt 饰),两人一见钟情,正当情意正浓时大卫突然被一群穿黑西装、戴黑帽和墨镜的神秘人士绑走。这群自称是隶属于联邦的人生命运调整局的人,告诉大卫他命里该当总统,伊丽丝也会成为世界著名的编舞家,他们的相爱会使两人的前途都成为泡影。规划局想尽一切方式阻止两人再次相遇。知道真相的大卫是会追求自己的梦想而放弃爱丽丝?还是为了真爱,对抗命运调整局呢?
  1. ##### MediaInfo ######
  2. General
  3. Unique ID                                : 208657668814835750702617883501725518757 (0x9CFA01580A8E9DCAB6EA21C378E48BA5)
  4. Complete name                            : The.Adjustment.Bureau.2011.BluRay.1080p.x265.10bit-MiniHD.mkv
  5. Format                                   : Matroska
  6. Format version                           : Version 4
  7. File size                                : 6.32 GiB
  8. Duration                                 : 1 h 45 min
  9. Overall bit rate                         : 8 562 kb/s
  10. Encoded date                             : UTC 2018-01-27 06:55:53
  11. Writing application                      : mkvmerge v8.5.2 ('Crosses') 32bit
  12. Writing library                          : libebml v1.3.3 + libmatroska v1.4.4
  13. Video
  14. ID                                       : 1
  15. Format                                   : HEVC
  16. Format/Info                              : High Efficiency Video Coding
  17. Format profile                           : Main 10@L4@Main
  18. Codec ID                                 : V_MPEGH/ISO/HEVC
  19. Duration                                 : 1 h 45 min
  20. Bit rate                                 : 7 879 kb/s
  21. Width                                    : 1 920 pixels
  22. Height                                   : 1 040 pixels
  23. Display aspect ratio                     : 1.85:1
  24. Frame rate mode                          : Constant
  25. Frame rate                               : 23.976 (24000/1001/53354) FPS
  26. Color space                              : YUV
  27. Chroma subsampling                       : 4:2:0
  28. Bit depth                                : 10 bits
  29. Bits/(Pixel*Frame)                       : 0.165
  30. Stream size                              : 5.82 GiB (92%)
  31. Writing library                          : x265 2.6+14-f09f3b4a2115:[Windows][GCC 7.2.0][64 bit] 10bit
  32. Encoding settings                        : cpuid=533541173503 / frame-threads=2 / numa-pools=4 / wpp / no-pmode / no-pme / no-psnr / no-ssim / log-level=2 / input-csp=1 / input-res=1920x1040 / interlace=0 / total-frames=152128 / level-idc=0 / high-tier=1 / uhd-bd=0 / ref=5 / no-allow-non-conformance / no-repeat-headers / annexb / no-aud / no-hrd / info / hash=0 / no-temporal-layers / no-open-gop / min-keyint=1 / keyint=360 / gop-lookahead=0 / bframes=8 / b-adapt=2 / b-pyramid / bframe-bias=0 / rc-lookahead=60 / lookahead-slices=4 / NTMzNTQ=uuDQuD2mJt9fsCf / scenecut=40 / no-intra-refresh / ctu=32 / min-cu-size=8 / no-rect / no-amp / max-tu-size=16 / tu-inter-depth=2 / tu-intra-depth=2 / limit-tu=4 / rdoq-level=2 / dynamic-rd=0.00 / ssim-rd / signhide / no-tskip / nr-intra=0 / nr-inter=0 / no-constrained-intra / no-strong-intra-smoothing / max-merge=3 / limit-refs=2 / limit-modes / me=3 / subme=5 / merange=25 / temporal-mvp / weightp / weightb / no-analyze-src-pics / deblock=-1:-1 / no-sao / no-sao-non-deblock / rd=4 / no-early-skip / no-rskip / no-fast-intra / no-tskip-fast / no-cu-lossless / b-intra / no-splitrd-skip / rdpenalty=1 / psy-rd=0.00 / psy-rdoq=5.00 / no-rd-refine / analysis-reuse-mode=0 / no-lossless / cbqpoffs=-2 / crqpoffs=-2 / rc=crf / crf=20.0 / qcomp=0.68 / qpstep=4 / stats-write=0 / stats-read=0 / ipratio=1.40 / pbratio=1.30 / aq-mode=3 / aq-strength=0.90 / cutree / zone-count=0 / no-strict-cbr / qg-size=16 / no-rc-grain / qpmax=69 / qpmin=0 / no-const-vbv / sar=1 / overscan=0 / videoformat=5 / range=0 / colorprim=1 / transfer=2 / colormatrix=2 / chromaloc=0 / display-window=0 / max-cll=0,0 / min-luma=0 / max-luma=1023 / log2-max-poc-lsb=8 / vui-timing-info / vui-hrd-info / slices=1 / no-opt-qp-pps / no-opt-ref-list-length-pps / no-multi-pass-opt-rps / scenecut-bias=0.05 / no-opt-cu-delta-qp / no-aq-motion / no-hdr / no-hdr-opt / no-dhdr10-opt / analysis-reuse-level=5 / scale-factor=0 / refine-intra=0 / refine-inter=0 / refine-mv=0 / no-limit-sao / ctu-info=0 / no-lowpass-dct / refine-mv-type=0 / copy-pic=1
  33. Default                                  : Yes
  34. Forced                                   : No
  35. Color range                              : Limited
  36. Color primaries                          : BT.709
  37. Audio
  38. ID                                       : 2
  39. Format                                   : AC-3
  40. Format/Info                              : Audio Coding 3
  41. Commercial name                          : Dolby Digital
  42. Codec ID                                 : A_AC3
  43. Duration                                 : 1 h 45 min
  44. Bit rate mode                            : Constant
  45. Bit rate                                 : 640 kb/s
  46. Channel(s)                               : 6 channels
  47. Channel layout                           : L R C LFE Ls Rs
  48. Sampling rate                            : 48.0 kHz
  49. Frame rate                               : 31.250 FPS (1536 SPF)
  50. Compression mode                         : Lossy
  51. Stream size                              : 484 MiB (7%)
  52. Service kind                             : Complete Main
  53. Default                                  : Yes
  54. Forced                                   : No
  55. Text #1
  56. ID                                       : 3
  57. Format                                   : PGS
  58. Muxing mode                              : zlib
  59. Codec ID                                 : S_HDMV/PGS
  60. Codec ID/Info                            : Picture based subtitle format used on BDs/HD-DVDs
  61. Duration                                 : 1 h 37 min
  62. Bit rate                                 : 14.9 kb/s
  63. Count of elements                        : 2854
  64. Stream size                              : 10.4 MiB (0%)
  65. Title                                    : CHS
  66. Language                                 : Chinese
  67. Default                                  : Yes
  68. Forced                                   : Yes
  69. Text #2
  70. ID                                       : 4
  71. Format                                   : PGS
  72. Muxing mode                              : zlib
  73. Codec ID                                 : S_HDMV/PGS
  74. Codec ID/Info                            : Picture based subtitle format used on BDs/HD-DVDs
  75. Duration                                 : 1 h 37 min
  76. Bit rate                                 : 15.1 kb/s
  77. Count of elements                        : 2854
  78. Stream size                              : 10.6 MiB (0%)
  79. Title                                    : CHS
  80. Language                                 : Chinese
  81. Default                                  : No
  82. Forced                                   : No
  83. Text #3
  84. ID                                       : 5
  85. Format                                   : PGS
  86. Muxing mode                              : zlib
  87. Codec ID                                 : S_HDMV/PGS
  88. Codec ID/Info                            : Picture based subtitle format used on BDs/HD-DVDs
  89. Duration                                 : 1 h 38 min
  90. Bit rate                                 : 13.5 kb/s
  91. Count of elements                        : 2984
  92. Stream size                              : 9.48 MiB (0%)
  93. Title                                    : ENG
  94. Language                                 : English
  95. Default                                  : No
  96. Forced                                   : No
  97. Menu
  98. 00:00:00.000                             : en:Chapter 01
  99. 00:06:37.772                             : en:Chapter 02
  100. 00:14:17.482                             : en:Chapter 03
  101. 00:20:58.215                             : en:Chapter 04
  102. 00:28:35.547                             : en:Chapter 05
  103. 00:31:11.495                             : en:Chapter 06
  104. 00:35:22.245                             : en:Chapter 07
  105. 00:38:58.836                             : en:Chapter 08
  106. 00:43:07.001                             : en:Chapter 09
  107. 00:51:35.050                             : en:Chapter 10
  108. 00:58:33.009                             : en:Chapter 11
  109. 01:02:14.981                             : en:Chapter 12
  110. 01:07:32.090                             : en:Chapter 13
  111. 01:12:00.650                             : en:Chapter 14
  112. 01:14:13.491                             : en:Chapter 15
  113. 01:19:47.574                             : en:Chapter 16
  114. 01:24:11.546                             : en:Chapter 17
  115. 01:30:00.604                             : en:Chapter 18
  116. 01:35:53.748                             : en:Chapter 19
  117. 01:38:54.470                             : en:Chapter 20





此处一般会放置磁力链或种子下载链接,不过此链接需要注册会员才能看到,点击“立即注册”
磁力链下载【下载链接仅对注册会员开放,登陆后可见】
BT9527电影天堂 1、BT9527电影天堂提供的BT文件均来源于互联网抓取,只供网友学习交流、技术提升使用。
2、我们遵守BitTorrent点对点协议原则,任何版权问题请联系原资源发布商,我们不处理任何版权纠纷,谢谢!如有争议请联系邮箱:BT9527#hotmail.com(#换成@)
3、如果您发现某页面或地址有错误,请联系站长邮箱BT9527#hotmail.com(#换成@),我们会尽快处理。您的热心是对BT9527电影天堂最大的支持。
4、本站建议去正规影院观看电影以支持电影行业发展。
最新回复 (0)

你可以在 登录 or 注册 后,对此帖发表评论!

返回
发新帖