危情十日[国英多音轨/简繁英字幕].Misery.1990.BluRay.1080p.x265.10bit.3Audios-MiniHD 5.28GB

版主小s 3天前 47

✔资源类型:暂未分类   ✔电影年份:更 早   ✔电影地区:欧美   ✔电影分类:剧情

◎译  名 危情十日 / 苦难 / 米泽丽 / 米塞莉 / 战栗游戏 / 头号书迷
◎片  名 Misery
◎年  代 1990
◎产  地 美国
◎类  别 剧情 / 惊悚 / 犯罪
◎语  言 英语
◎上映日期 1990-11-30
◎IMDb链接 https://www.imdb.com/title/tt0100157/
◎豆瓣评分 8.4/10 (66361人评价)
◎豆瓣链接 https://movie.douban.com/subject/1292850/
◎片  长 107 分钟
◎导  演 罗伯·莱纳 Rob Reiner (id:1031903)
◎编  剧 威廉姆·高德曼 William Goldman (id:1022867)
       斯蒂芬·金 Stephen King (id:1049547)
◎演  员 詹姆斯·肯恩 James Caan (id:1000050)
       凯西·贝茨 Kathy Bates (id:1010555)
       理查德·法恩斯沃斯 Richard Farnsworth (id:1049803)
       弗朗西斯·斯特恩哈根  Frances Sternhagen (id:1148980)
       J·T·沃尔什 J.T. Walsh (id:1055936)
       格雷厄姆·贾维斯 Graham Jarvis (id:1050250)
       劳伦·白考尔 Lauren Bacall (id:1049581)
       罗伯·莱纳 Rob Reiner (id:1031903)
       安德鲁·沙因曼 Andrew Scheinman (id:1276019)
       马克·夏曼 Marc Shaiman (id:1027631)
       罗伯特·利顿 Robert Leighton (id:1289761)
       珍妮特·希尔森 Janet Hirshenson (id:1286699)
       马克·W·曼斯布里奇 Mark W. Mansbridge (id:1290903)
       加雷特·刘易斯 Garrett Lewis (id:1289951)
       诺尔曼·加尔伍德 Norman Garwood (id:1284595)
       格洛里亚·格雷斯汉 Gloria Gresham (id:1285438)
       霍华德·伯杰 Howard Berger (id:1278442)
       朱迪斯·A·科里 Judith A. Cory (id:1281330)
       Margaret E. Elliott Margaret E. Elliott (id:1283123)
       小约翰·M·艾略特 John M. Elliott Jr. (id:1283124)
       Dennis Maguire Dennis Maguire (id:1290727)
       Drew Ann Rosenberg Drew Ann Rosenberg (id:1296066)

◎简  介
  畅销书作家保罗?谢尔顿(詹姆斯?凯恩 James Caan 饰)带着他的最新作品《米瑟莉》驱车走在回家的路上。途中他遭遇了可怕的暴风雪,轿车发生侧翻事故,保罗的双腿严重受伤,幸好被独居在附近山顶的护士安妮?威尔克斯(凯西?贝茨 Kathy Bates 饰)及时相救。安妮是保罗的头号书迷,在她的悉心照顾下,保罗的伤势日渐好转。但当她获悉喜爱的女主人公在保罗的新书中已经死亡,却难以遏制心中的怒火,通过各种手段向保罗施加报复,逐渐将作家逼向了绝望……                                    
                                影片根据恐怖小说大师斯蒂芬?金的同名小说改编,女主角凯西?贝茨凭借此片中的疯狂又反复无常的表演,成功斩获了第63届奥斯卡的最佳女演员奖。

◎获奖情况 (共1项)
  第63届奥斯卡金像奖 (1991)
  最佳女主角
   └──凯西·贝茨 (id:1010555)

  1. ##### MediaInfo ######
  2. General
  3. Unique ID                                : 201601466796829260624137475543511193394 (0x97AB07B975AE190FB49E497BA389D732)
  4. Complete name                            : Misery.1990.BluRay.1080p.x265.10bit.3Audios-MiniHD.mkv
  5. Format                                   : Matroska
  6. Format version                           : Version 4
  7. File size                                : 5.28 GiB
  8. Duration                                 : 1 h 47 min
  9. Overall bit rate                         : 7 038 kb/s
  10. Encoded date                             : UTC 2018-02-13 03:18:41
  11. Writing application                      : mkvmerge v20.0.0 ('I Am The Sun') 64-bit
  12. Writing library                          : libebml v1.3.5 + libmatroska v1.4.8
  13. Video
  14. ID                                       : 1
  15. Format                                   : HEVC
  16. Format/Info                              : High Efficiency Video Coding
  17. Format profile                           : Main 10@L4@High
  18. Codec ID                                 : V_MPEGH/ISO/HEVC
  19. Duration                                 : 1 h 47 min
  20. Bit rate                                 : 5 399 kb/s
  21. Width                                    : 1 920 pixels
  22. Height                                   : 1 040 pixels
  23. Display aspect ratio                     : 1.85:1
  24. Frame rate mode                          : Constant
  25. Frame rate                               : 23.976 (24000/1001/53354) FPS
  26. Color space                              : YUV
  27. Chroma subsampling                       : 4:2:0
  28. Bit depth                                : 10 bits
  29. Bits/(Pixel*Frame)                       : 0.113
  30. Stream size                              : 4.05 GiB (77%)
  31. Title                                    : 视频
  32. Default                                  : Yes
  33. Forced                                   : No
  34. Color range                              : Limited
  35. Color primaries                          : BT.709
  36. Transfer characteristics                 : BT.709
  37. Matrix coefficients                      : BT.709
  38. Audio #1
  39. ID                                       : 2
  40. Format                                   : AC-3
  41. Format/Info                              : Audio Coding 3
  42. Commercial name                          : Dolby Digital
  43. Codec ID                                 : A_AC3
  44. Duration                                 : 1 h 47 min
  45. Bit rate mode                            : Constant
  46. Bit rate                                 : 640 kb/s
  47. Channel(s)                               : 6 channels
  48. Channel layout                           : L R C LFE Ls Rs
  49. Sampling rate                            : 48.0 kHz
  50. Frame rate                               : 31.250 FPS (1536 SPF)
  51. Compression mode                         : Lossy
  52. Stream size                              : 492 MiB (9%)
  53. Title                                    : 英语ac3-5.1@640kbps
  54. Language                                 : English
  55. Service kind                             : Complete Main
  56. Default                                  : Yes
  57. Forced                                   : No
  58. Audio #2
  59. ID                                       : 3
  60. Format                                   : AC-3
  61. Format/Info                              : Audio Coding 3
  62. Commercial name                          : Dolby Digital
  63. Codec ID                                 : A_AC3
  64. Duration                                 : 1 h 47 min
  65. Bit rate mode                            : Constant
  66. Bit rate                                 : 640 kb/s
  67. Channel(s)                               : 6 channels
  68. Channel layout                           : L R C LFE Ls Rs
  69. Sampling rate                            : 48.0 kHz
  70. Frame rate                               : 31.250 FPS (1536 SPF)
  71. Compression mode                         : Lossy
  72. Stream size                              : 492 MiB (9%)
  73. Title                                    : 德加拉国配ac3-5.1@640kbps
  74. Language                                 : Chinese
  75. Service kind                             : Complete Main
  76. Default                                  : No
  77. Forced                                   : No
  78. Audio #3
  79. ID                                       : 4
  80. Format                                   : AC-3
  81. Format/Info                              : Audio Coding 3
  82. Commercial name                          : Dolby Digital
  83. Codec ID                                 : A_AC3
  84. Duration                                 : 1 h 47 min
  85. Bit rate mode                            : Constant
  86. Bit rate                                 : 256 kb/s
  87. Channel(s)                               : 2 channels
  88. Channel layout                           : L R
  89. Sampling rate                            : 48.0 kHz
  90. Frame rate                               : 31.250 FPS (1536 SPF)
  91. Compression mode                         : Lossy
  92. Stream size                              : 197 MiB (4%)
  93. Title                                    : 央视国配ac3-2.0@256kbps
  94. Language                                 : Chinese
  95. Service kind                             : Complete Main
  96. Default                                  : No
  97. Forced                                   : No
  98. Text #1
  99. ID                                       : 5
  100. Format                                   : PGS
  101. Muxing mode                              : zlib
  102. Codec ID                                 : S_HDMV/PGS
  103. Codec ID/Info                            : Picture based subtitle format used on BDs/HD-DVDs
  104. Duration                                 : 1 h 44 min
  105. Bit rate                                 : 29.0 kb/s
  106. Count of elements                        : 2143
  107. Stream size                              : 21.8 MiB (0%)
  108. Title                                    : 简中
  109. Language                                 : Chinese
  110. Default                                  : Yes
  111. Forced                                   : No
  112. Text #2
  113. ID                                       : 6
  114. Format                                   : PGS
  115. Muxing mode                              : zlib
  116. Codec ID                                 : S_HDMV/PGS
  117. Codec ID/Info                            : Picture based subtitle format used on BDs/HD-DVDs
  118. Duration                                 : 1 h 44 min
  119. Bit rate                                 : 30.0 kb/s
  120. Count of elements                        : 2143
  121. Stream size                              : 22.5 MiB (0%)
  122. Title                                    : 繁中
  123. Language                                 : Chinese
  124. Default                                  : No
  125. Forced                                   : No
  126. Text #3
  127. ID                                       : 7
  128. Format                                   : PGS
  129. Muxing mode                              : zlib
  130. Codec ID                                 : S_HDMV/PGS
  131. Codec ID/Info                            : Picture based subtitle format used on BDs/HD-DVDs
  132. Duration                                 : 1 h 44 min
  133. Bit rate                                 : 46.8 kb/s
  134. Count of elements                        : 2143
  135. Stream size                              : 35.1 MiB (1%)
  136. Title                                    : 简英
  137. Default                                  : No
  138. Forced                                   : No
  139. Text #4
  140. ID                                       : 8
  141. Format                                   : PGS
  142. Muxing mode                              : zlib
  143. Codec ID                                 : S_HDMV/PGS
  144. Codec ID/Info                            : Picture based subtitle format used on BDs/HD-DVDs
  145. Duration                                 : 1 h 44 min
  146. Bit rate                                 : 47.8 kb/s
  147. Count of elements                        : 2143
  148. Stream size                              : 35.8 MiB (1%)
  149. Title                                    : 繁英
  150. Default                                  : No
  151. Forced                                   : No
  152. Text #5
  153. ID                                       : 9
  154. Format                                   : PGS
  155. Muxing mode                              : zlib
  156. Codec ID                                 : S_HDMV/PGS
  157. Codec ID/Info                            : Picture based subtitle format used on BDs/HD-DVDs
  158. Duration                                 : 1 h 46 min
  159. Bit rate                                 : 30.6 kb/s
  160. Count of elements                        : 1919
  161. Stream size                              : 23.2 MiB (0%)
  162. Title                                    : 英语
  163. Language                                 : English
  164. Default                                  : No
  165. Forced                                   : No
  166. Menu
  167. 00:00:00.000                             : en:Chapter 01
  168. 00:07:03.256                             : en:Chapter 02
  169. 00:19:05.978                             : en:Chapter 03
  170. 00:32:16.268                             : en:Chapter 04
  171. 00:41:27.318                             : en:Chapter 05
  172. 00:49:52.781                             : en:Chapter 06
  173. 00:57:20.062                             : en:Chapter 07
  174. 01:05:06.778                             : en:Chapter 08
  175. 01:11:26.073                             : en:Chapter 09
  176. 01:23:05.731                             : en:Chapter 10
  177. 01:36:10.723                             : en:Chapter 11
  178. 01:44:14.832                             : en:Chapter 12
  179. 01:47:23.437                             : en:Chapter 13





此处一般会放置磁力链或种子下载链接,不过此链接需要注册会员才能看到,点击“立即注册”
磁力链下载【下载链接仅对注册会员开放,登陆后可见】
BT9527电影天堂 1、BT9527电影天堂提供的BT文件均来源于互联网抓取,只供网友学习交流、技术提升使用。
2、我们遵守BitTorrent点对点协议原则,任何版权问题请联系原资源发布商,我们不处理任何版权纠纷,谢谢!如有争议请联系邮箱:BT9527#hotmail.com(#换成@)
3、如果您发现某页面或地址有错误,请联系站长邮箱BT9527#hotmail.com(#换成@),我们会尽快处理。您的热心是对BT9527电影天堂最大的支持。
4、本站建议去正规影院观看电影以支持电影行业发展。
最新回复 (0)

你可以在 登录 or 注册 后,对此帖发表评论!

返回
发新帖