勇敢者游戏:决战丛林[国英多音轨/简繁英字幕].jumanji.welcome.to.the.jungle.2017.BluRay.1080p.x265.10bit.2Audio-MiniHD 6.88GB

版主小s 3天前 28

✔资源类型:暂未分类   ✔电影年份:2017   ✔电影地区:欧美   ✔电影分类:喜剧

◎译  名 勇敢者游戏:决战丛林 / 野蛮游戏:疯狂丛林(台) / 逃出魔幻纪:丛林挑机(港) / 新勇敢者的游戏 / 勇敢者的游戏
◎片  名 Jumanji: Welcome to the Jungle
◎年  代 2017
◎产  地 美国 / 印度 / 加拿大 / 英国 / 澳大利亚 / 德国
◎类  别 喜剧 / 动作 / 奇幻 / 冒险
◎语  言 英语
◎上映日期 2018-01-12(中国大陆) / 2017-12-20(美国)
◎IMDb链接 https://www.imdb.com/title/tt2283362/
◎豆瓣评分 6.8/10 (193352人评价)
◎豆瓣链接 https://movie.douban.com/subject/26586766/
◎片  长 119分钟
◎导  演 杰克·卡斯丹 Jake Kasdan (id:1040862)
◎编  剧 克里斯·麦克纳 Chris McKenna (id:1331505)
       埃里克·萨默斯 Erik Sommers (id:1368514)
       斯科特·罗森伯格 Scott Rosenberg (id:1045248)
       杰夫·皮克纳 Jeff Pinkner (id:1339645)
       克里斯·范·奥斯伯格 Chris Van Allsburg (id:1018801)
       扎克·海尔姆 Zach Helm (id:1004919)
◎演  员 道恩·强森 Dwayne Johnson (id:1044707)
       凯文·哈特 Kevin Hart (id:1286162)
       杰克·布莱克 Jack Black (id:1049492)
       凯伦·吉兰 Karen Gillan (id:1036344)
       尼克·乔纳斯 Nick Jonas (id:1049552)
       瑞斯·达比 Rhys Darby (id:1000122)
       鲍比·坎纳瓦尔 Bobby Cannavale (id:1044985)
       亚历克斯·沃尔夫 Alex Wolff (id:1220062)
       瑟达吕斯·布兰 Ser'Darius Blain (id:1329000)
       麦迪森·伊瑟曼 Madison Iseman (id:1363304)
       摩根·特纳 Morgan Turner (id:1228823)
       梅森·古乔内 Mason Guccione (id:1386043)
       马克·埃文·杰克逊 Marc Evan Jackson (id:1207621)
       玛琳·辛科 Marin Hinkle (id:1002715)
       特雷西·邦纳 Tracey Bonner (id:1349026)
       玛莉贝丝·梦露 Maribeth Monroe (id:1350878)
       米西·派勒 Missi Pyle (id:1041116)
       杰米·雷内尔 Jamie Renell (id:1179124)
       卡尔利斯·布克 Carlease Burke (id:1331712)
       罗翰·昌德 Rohan Chand (id:1342071)
       科林·汉克斯 Colin Hanks (id:1036307)
       道恩·强森 Dwayne Johnson (id:1044707)
       亨利·杰克曼 Henry Jackman (id:1315635)
       Laura Jean Shannon Laura Jean Shannon (id:1297314)
       劳拉·丹德里奇 Laura Dandridge (id:1341790)
       奥·布里克 Ed Ulbrich (id:1410103)
       达里尔·索丘克 Daryl Sawchuk (id:1416842)

◎简  介
  斯宾塞、“冰箱”弗里奇、贝瑟尼和玛莎是某高中的问题学生,这一日他们因不同的错误而被留校劳动。在一间堆满陈旧废弃物的储藏室内,斯宾塞发现一台年代久远的游戏机。四人原本想放松一下,谁知却被吸进了游戏机中。在凶险的尤曼吉热带丛林里,少男少女分别变成了勇石博士(道恩·强森 Dwayne Johnson 饰)、毛子·芬巴(凯文·哈特 Kevin Hart 饰)、奥伯伦教授(杰克·布莱克 Jack Black 饰)和铁拳露比(凯伦·吉兰 Karen Gillan 饰),他们必须遵照游戏规则,突破邪恶博士的阻挠,将宝石放回原处,恢复尤曼吉的和平,而这也是他们重返现实世界的唯一途径。                                    
                                毒蛇、猛兽以及纠缠不休的暴徒,为四个玩家带来了永生难忘的冒险体验……

◎获奖情况 (共3项)
  第27届MTV电影奖 (2018)
  MTV电影奖 最佳喜剧表演(提名)
   └──杰克·布莱克 (id:1049492)
  MTV电影奖 最佳银幕组合(提名)

  第5届豆瓣电影年度榜单 (2018)
  评分最高的科幻/动作片(提名)

  1. ##### MediaInfo ######
  2. General
  3. Unique ID                                : 201476505304225964949611493519778152300 (0x9792F6A5AE50F69088DCFDA1E6087F6C)
  4. Complete name                            : jumanji.welcome.to.the.jungle.2017.BluRay.1080p.x265.10bit.2Audio-MiniHD.mkv
  5. Format                                   : Matroska
  6. Format version                           : Version 4
  7. File size                                : 6.88 GiB
  8. Duration                                 : 1 h 59 min
  9. Overall bit rate                         : 8 275 kb/s
  10. Encoded date                             : UTC 2018-03-23 05:04:18
  11. Writing application                      : mkvmerge v18.0.0 ('Apricity') 64-bit
  12. Writing library                          : libebml v1.3.5 + libmatroska v1.4.8
  13. Video
  14. ID                                       : 1
  15. Format                                   : HEVC
  16. Format/Info                              : High Efficiency Video Coding
  17. Format profile                           : Main 10@L4@Main
  18. Codec ID                                 : V_MPEGH/ISO/HEVC
  19. Duration                                 : 1 h 59 min
  20. Bit rate                                 : 6 860 kb/s
  21. Width                                    : 1 920 pixels
  22. Height                                   : 800 pixels
  23. Display aspect ratio                     : 2.40:1
  24. Frame rate mode                          : Constant
  25. Frame rate                               : 23.976 (24000/1001/53354) FPS
  26. Color space                              : YUV
  27. Chroma subsampling                       : 4:2:0
  28. Bit depth                                : 10 bits
  29. Bits/(Pixel*Frame)                       : 0.186
  30. Stream size                              : 5.70 GiB (83%)
  31. Writing library                          : x265 2.6+14-f09f3b4a2115:[Windows][GCC 7.2.0][64 bit] 10bit
  32. Encoding settings                        : cpuid=533541173503 / frame-threads=3 / numa-pools=8 / wpp / no-pmode / no-pme / no-psnr / no-ssim / log-level=2 / input-csp=1 / input-res=1920x800 / interlace=0 / total-frames=171265 / level-idc=0 / high-tier=1 / uhd-bd=0 / ref=5 / no-allow-non-conformance / no-repeat-headers / annexb / no-aud / no-hrd / info / hash=0 / no-temporal-layers / no-open-gop / min-keyint=1 / keyint=360 / gop-lookahead=0 / bframes=8 / b-adapt=2 / b-pyramid / bframe-bias=0 / rc-lookahead=40 / lookahead-slices=4 / NTMzNTQ=uuDQuD2mJt9fsCf / scenecut=40 / no-intra-refresh / ctu=32 / min-cu-size=8 / rect / no-amp / max-tu-size=16 / tu-inter-depth=2 / tu-intra-depth=2 / limit-tu=4 / rdoq-level=1 / dynamic-rd=0.00 / ssim-rd / signhide / no-tskip / nr-intra=0 / nr-inter=0 / no-constrained-intra / no-strong-intra-smoothing / max-merge=3 / limit-refs=2 / limit-modes / me=3 / subme=5 / merange=25 / temporal-mvp / weightp / weightb / no-analyze-src-pics / deblock=-1:-1 / no-sao / no-sao-non-deblock / rd=4 / no-early-skip / rskip / no-fast-intra / no-tskip-fast / no-cu-lossless / b-intra / no-splitrd-skip / rdpenalty=1 / psy-rd=0.00 / psy-rdoq=5.00 / no-rd-refine / analysis-reuse-mode=0 / no-lossless / cbqpoffs=-2 / crqpoffs=-2 / rc=crf / crf=17.0 / qcomp=0.65 / qpstep=4 / stats-write=0 / stats-read=0 / ipratio=1.40 / pbratio=1.30 / aq-mode=2 / aq-strength=0.80 / cutree / zone-count=0 / no-strict-cbr / qg-size=16 / no-rc-grain / qpmax=69 / qpmin=0 / no-const-vbv / sar=1 / overscan=0 / videoformat=5 / range=0 / colorprim=1 / transfer=2 / colormatrix=2 / chromaloc=0 / display-window=0 / max-cll=0,0 / min-luma=0 / max-luma=1023 / log2-max-poc-lsb=8 / vui-timing-info / vui-hrd-info / slices=1 / no-opt-qp-pps / no-opt-ref-list-length-pps / no-multi-pass-opt-rps / scenecut-bias=0.05 / no-opt-cu-delta-qp / no-aq-motion / no-hdr / no-hdr-opt / no-dhdr10-opt / analysis-reuse-level=5 / scale-factor=0 / refine-intra=0 / refine-inter=0 / refine-mv=0 / no-limit-sao / ctu-info=0 / no-lowpass-dct / refine-mv-type=0 / copy-pic=1
  33. Default                                  : Yes
  34. Forced                                   : No
  35. Color range                              : Limited
  36. Color primaries                          : BT.709
  37. Audio #1
  38. ID                                       : 2
  39. Format                                   : AC-3
  40. Format/Info                              : Audio Coding 3
  41. Commercial name                          : Dolby Digital
  42. Codec ID                                 : A_AC3
  43. Duration                                 : 1 h 59 min
  44. Bit rate mode                            : Constant
  45. Bit rate                                 : 640 kb/s
  46. Channel(s)                               : 6 channels
  47. Channel layout                           : L R C LFE Ls Rs
  48. Sampling rate                            : 48.0 kHz
  49. Frame rate                               : 31.250 FPS (1536 SPF)
  50. Compression mode                         : Lossy
  51. Stream size                              : 545 MiB (8%)
  52. Language                                 : English
  53. Service kind                             : Complete Main
  54. Default                                  : Yes
  55. Forced                                   : No
  56. Audio #2
  57. ID                                       : 3
  58. Format                                   : AC-3
  59. Format/Info                              : Audio Coding 3
  60. Commercial name                          : Dolby Digital
  61. Codec ID                                 : A_AC3
  62. Duration                                 : 1 h 59 min
  63. Bit rate mode                            : Constant
  64. Bit rate                                 : 640 kb/s
  65. Channel(s)                               : 6 channels
  66. Channel layout                           : L R C LFE Ls Rs
  67. Sampling rate                            : 48.0 kHz
  68. Frame rate                               : 31.250 FPS (1536 SPF)
  69. Compression mode                         : Lossy
  70. Stream size                              : 545 MiB (8%)
  71. Language                                 : Chinese
  72. Service kind                             : Complete Main
  73. Default                                  : No
  74. Forced                                   : No
  75. Text #1
  76. ID                                       : 4
  77. Format                                   : PGS
  78. Muxing mode                              : zlib
  79. Codec ID                                 : S_HDMV/PGS
  80. Codec ID/Info                            : Picture based subtitle format used on BDs/HD-DVDs
  81. Duration                                 : 1 h 58 min
  82. Bit rate                                 : 42.2 kb/s
  83. Count of elements                        : 3764
  84. Stream size                              : 35.7 MiB (1%)
  85. Title                                    : 英语
  86. Language                                 : English
  87. Default                                  : No
  88. Forced                                   : No
  89. Text #2
  90. ID                                       : 5
  91. Format                                   : PGS
  92. Muxing mode                              : zlib
  93. Codec ID                                 : S_HDMV/PGS
  94. Codec ID/Info                            : Picture based subtitle format used on BDs/HD-DVDs
  95. Duration                                 : 1 h 48 min
  96. Bit rate                                 : 36.1 kb/s
  97. Count of elements                        : 2927
  98. Stream size                              : 28.1 MiB (0%)
  99. Title                                    : 中影国配简体
  100. Language                                 : Chinese
  101. Default                                  : Yes
  102. Forced                                   : No
  103. Text #3
  104. ID                                       : 6
  105. Format                                   : PGS
  106. Muxing mode                              : zlib
  107. Codec ID                                 : S_HDMV/PGS
  108. Codec ID/Info                            : Picture based subtitle format used on BDs/HD-DVDs
  109. Duration                                 : 1 h 58 min
  110. Bit rate                                 : 26.8 kb/s
  111. Count of elements                        : 2989
  112. Stream size                              : 22.7 MiB (0%)
  113. Title                                    : 原盘繁体粤配
  114. Language                                 : Chinese
  115. Default                                  : No
  116. Forced                                   : No
  117. Text #4
  118. ID                                       : 7
  119. Format                                   : PGS
  120. Muxing mode                              : zlib
  121. Codec ID                                 : S_HDMV/PGS
  122. Codec ID/Info                            : Picture based subtitle format used on BDs/HD-DVDs
  123. Duration                                 : 1 h 58 min
  124. Bit rate                                 : 32.2 kb/s
  125. Count of elements                        : 3126
  126. Stream size                              : 27.2 MiB (0%)
  127. Title                                    : 原盘简体
  128. Language                                 : Chinese
  129. Default                                  : No
  130. Forced                                   : No
  131. Text #5
  132. ID                                       : 8
  133. Format                                   : PGS
  134. Muxing mode                              : zlib
  135. Codec ID                                 : S_HDMV/PGS
  136. Codec ID/Info                            : Picture based subtitle format used on BDs/HD-DVDs
  137. Duration                                 : 1 h 58 min
  138. Bit rate                                 : 26.3 kb/s
  139. Count of elements                        : 3000
  140. Stream size                              : 22.3 MiB (0%)
  141. Title                                    : 原盘繁体台配
  142. Language                                 : Chinese
  143. Default                                  : No
  144. Forced                                   : No
  145. Text #6
  146. ID                                       : 9
  147. Format                                   : PGS
  148. Muxing mode                              : zlib
  149. Codec ID                                 : S_HDMV/PGS
  150. Codec ID/Info                            : Picture based subtitle format used on BDs/HD-DVDs
  151. Duration                                 : 1 h 50 min
  152. Bit rate                                 : 73.9 kb/s
  153. Count of elements                        : 2848
  154. Stream size                              : 58.3 MiB (1%)
  155. Title                                    : 简英双语
  156. Language                                 : Chinese
  157. Default                                  : No
  158. Forced                                   : No
  159. Menu
  160. 00:00:00.000                             : en:Chapter 01
  161. 00:07:18.104                             : en:Chapter 02
  162. 00:17:15.993                             : en:Chapter 03
  163. 00:23:23.235                             : en:Chapter 04
  164. 00:29:24.971                             : en:Chapter 05
  165. 00:42:28.546                             : en:Chapter 06
  166. 00:47:11.161                             : en:Chapter 07
  167. 00:54:26.721                             : en:Chapter 08
  168. 01:03:20.838                             : en:Chapter 09
  169. 01:10:21.800                             : en:Chapter 10
  170. 01:15:51.672                             : en:Chapter 11
  171. 01:24:10.086                             : en:Chapter 12
  172. 01:28:20.295                             : en:Chapter 13
  173. 01:33:48.414                             : en:Chapter 14
  174. 01:42:22.886                             : en:Chapter 15
  175. 01:48:31.838                             : en:Chapter 16





此处一般会放置磁力链或种子下载链接,不过此链接需要注册会员才能看到,点击“立即注册”
磁力链下载【下载链接仅对注册会员开放,登陆后可见】
BT9527电影天堂 1、BT9527电影天堂提供的BT文件均来源于互联网抓取,只供网友学习交流、技术提升使用。
2、我们遵守BitTorrent点对点协议原则,任何版权问题请联系原资源发布商,我们不处理任何版权纠纷,谢谢!如有争议请联系邮箱:BT9527#hotmail.com(#换成@)
3、如果您发现某页面或地址有错误,请联系站长邮箱BT9527#hotmail.com(#换成@),我们会尽快处理。您的热心是对BT9527电影天堂最大的支持。
4、本站建议去正规影院观看电影以支持电影行业发展。
最新回复 (0)

你可以在 登录 or 注册 后,对此帖发表评论!

返回
发新帖