勇往直前[简繁英字幕].Only.the.Brave.2017.BluRay.1080p.x265.10bit-MiniHD 5.73GB

版主小s 12天前 47

✔资源类型:暂未分类   ✔电影年份:2017   ✔电影地区:欧美   ✔电影分类:剧情

◎译  名 勇往直前 / 烈焰雄心(港) / 无路可退(台) / Granite Mountain Hotshots / No Exit
◎片  名 Only the Brave
◎年  代 2017
◎产  地 美国
◎类  别 剧情 / 传记 / 灾难
◎语  言 英语
◎上映日期 2017-12-08(中国大陆) / 2017-10-20(美国)
◎IMDb链接 https://www.imdb.com/title/tt3829920/
◎豆瓣评分 8.3/10 (87865人评价)
◎豆瓣链接 https://movie.douban.com/subject/26718828/
◎片  长 134分钟
◎导  演 约瑟夫·科辛斯基 Joseph Kosinski (id:1313149)
◎编  剧 肯·诺兰 Ken Nolan (id:1293241)
       埃里克·辛格尔 Eric Singer (id:1323406)
       肖恩·弗林 Sean Flynn (id:1383073)
◎演  员 乔什·布洛林 Josh Brolin (id:1004568)
       迈尔斯·特勒 Miles Teller (id:1313408)
       杰夫·布里吉斯 Jeff Bridges (id:1036313)
       詹妮弗·康纳利 Jennifer Connelly (id:1016673)
       詹姆斯·戴尔 James Badge Dale (id:1044722)
       泰勒·克奇 Taylor Kitsch (id:1000016)
       安迪·麦克道威尔 Andie MacDowell (id:1048128)
       吉欧夫·斯图兹 Geoff Stults (id:1036382)
       亚历克斯·罗素 Alex Russell (id:1315631)
       萨德·拉金比尔 Thad Luckinbill (id:1115291)
       本·哈迪 Ben Hardy (id:1344763)
       斯科特·黑兹 Scott Haze (id:1335114)
       杰克·皮克金 Jake Picking (id:1341288)
       斯科特·福克斯 Scott Foxx (id:1383074)
       迪兰·科宁 Dylan Kenin (id:1328497)
       娜塔莉·豪尔 Natalie Hall (id:1327392)
       贝尔·詹姆斯 Pell James (id:1045149)
       肯尼斯·米勒 Kenneth Miller (id:1236878)
       洛拉·玛汀内斯-康宁安 Lora Martinez-Cunningham (id:1391559)
       乔什·霍普金斯 Josh Hopkins (id:1049560)
       约瑟夫·特雷帕尼斯 Joseph Trapanese (id:1378570)
       克劳迪奥·米兰达 Claudio Miranda (id:1292192)
       罗莉凯恩 Raleigh Cain (id:1388033)

◎简  介
  本片根据“格拉尼特山高手”消防队英勇事迹改编。影片讲述在“格拉尼特山高手队”创建之初,队里既有失足青年也有人面临婚姻危机等各种生活问题。队长埃里克·马什却始终充满热情,督促队员刻苦训练。这支看似由失意者组成的团队也逐 步成为城镇的荣誉象征……然而这一切被突如其来的森林大火所打破。面对近在咫尺的灾难,作为尖兵部队的他们勇往直前,却在阻止火势蔓延时被困火海、命悬一线。整个团队的安危与荣誉也面临巨大考验。

◎获奖情况 (共3项)
  第16届美国视觉效果协会奖 (2018)
  最佳电影辅助视觉效果(提名)
  最佳真人电影模拟动画效果(提名)

  第4届豆瓣电影年度榜单 (2017)
  12月最受关注电影(提名)

  1. ##### MediaInfo ######
  2. General
  3. Unique ID                                : 135836336479349377087259901353305767045 (0x66312075B64B657C3ECE1DD0B20AFC85)
  4. Complete name                            : Only.the.Brave.2017.BluRay.1080p.x265.10bit-MiniHD.mkv
  5. Format                                   : Matroska
  6. Format version                           : Version 4
  7. File size                                : 5.73 GiB
  8. Duration                                 : 2 h 14 min
  9. Overall bit rate                         : 6 121 kb/s
  10. Encoded date                             : UTC 2018-01-31 09:39:44
  11. Writing application                      : mkvmerge v20.0.0 ('I Am The Sun') 64-bit
  12. Writing library                          : libebml v1.3.5 + libmatroska v1.4.8
  13. Video
  14. ID                                       : 1
  15. Format                                   : HEVC
  16. Format/Info                              : High Efficiency Video Coding
  17. Format profile                           : Main 10@L4@High
  18. Codec ID                                 : V_MPEGH/ISO/HEVC
  19. Duration                                 : 2 h 14 min
  20. Bit rate                                 : 5 373 kb/s
  21. Width                                    : 1 920 pixels
  22. Height                                   : 808 pixels
  23. Display aspect ratio                     : 2.40:1
  24. Frame rate mode                          : Constant
  25. Frame rate                               : 23.976 (24000/1001/53354) FPS
  26. Color space                              : YUV
  27. Chroma subsampling                       : 4:2:0
  28. Bit depth                                : 10 bits
  29. Bits/(Pixel*Frame)                       : 0.144
  30. Stream size                              : 5.03 GiB (88%)
  31. Title                                    : 视频
  32. Default                                  : Yes
  33. Forced                                   : No
  34. Color range                              : Limited
  35. Color primaries                          : BT.709
  36. Audio
  37. ID                                       : 2
  38. Format                                   : AC-3
  39. Format/Info                              : Audio Coding 3
  40. Commercial name                          : Dolby Digital
  41. Codec ID                                 : A_AC3
  42. Duration                                 : 2 h 14 min
  43. Bit rate mode                            : Constant
  44. Bit rate                                 : 640 kb/s
  45. Channel(s)                               : 6 channels
  46. Channel layout                           : L R C LFE Ls Rs
  47. Sampling rate                            : 48.0 kHz
  48. Frame rate                               : 31.250 FPS (1536 SPF)
  49. Compression mode                         : Lossy
  50. Stream size                              : 614 MiB (10%)
  51. Title                                    : 英语ac3-5.1@640kbps
  52. Language                                 : English
  53. Service kind                             : Complete Main
  54. Default                                  : Yes
  55. Forced                                   : No
  56. Text #1
  57. ID                                       : 3
  58. Format                                   : PGS
  59. Muxing mode                              : zlib
  60. Codec ID                                 : S_HDMV/PGS
  61. Codec ID/Info                            : Picture based subtitle format used on BDs/HD-DVDs
  62. Duration                                 : 2 h 5 min
  63. Bit rate                                 : 32.0 kb/s
  64. Count of elements                        : 3890
  65. Stream size                              : 28.8 MiB (0%)
  66. Title                                    : 简中画面外
  67. Language                                 : Chinese
  68. Default                                  : Yes
  69. Forced                                   : No
  70. Text #2
  71. ID                                       : 4
  72. Format                                   : PGS
  73. Muxing mode                              : zlib
  74. Codec ID                                 : S_HDMV/PGS
  75. Codec ID/Info                            : Picture based subtitle format used on BDs/HD-DVDs
  76. Duration                                 : 2 h 5 min
  77. Bit rate                                 : 32.0 kb/s
  78. Count of elements                        : 3890
  79. Stream size                              : 28.8 MiB (0%)
  80. Title                                    : 简中画面内
  81. Language                                 : Chinese
  82. Default                                  : No
  83. Forced                                   : No
  84. Text #3
  85. ID                                       : 5
  86. Format                                   : PGS
  87. Muxing mode                              : zlib
  88. Codec ID                                 : S_HDMV/PGS
  89. Codec ID/Info                            : Picture based subtitle format used on BDs/HD-DVDs
  90. Duration                                 : 2 h 5 min
  91. Bit rate                                 : 33.5 kb/s
  92. Count of elements                        : 3890
  93. Stream size                              : 30.1 MiB (1%)
  94. Title                                    : 繁中画面外
  95. Language                                 : Chinese
  96. Default                                  : No
  97. Forced                                   : No
  98. Text #4
  99. ID                                       : 6
  100. Format                                   : PGS
  101. Muxing mode                              : zlib
  102. Codec ID                                 : S_HDMV/PGS
  103. Codec ID/Info                            : Picture based subtitle format used on BDs/HD-DVDs
  104. Duration                                 : 2 h 5 min
  105. Bit rate                                 : 33.5 kb/s
  106. Count of elements                        : 3890
  107. Stream size                              : 30.1 MiB (1%)
  108. Title                                    : 繁中画面内
  109. Language                                 : Chinese
  110. Default                                  : No
  111. Forced                                   : No
  112. Text #5
  113. ID                                       : 7
  114. Format                                   : PGS
  115. Muxing mode                              : zlib
  116. Codec ID                                 : S_HDMV/PGS
  117. Codec ID/Info                            : Picture based subtitle format used on BDs/HD-DVDs
  118. Duration                                 : 2 h 3 min
  119. Bit rate                                 : 49.3 kb/s
  120. Count of elements                        : 3794
  121. Stream size                              : 43.7 MiB (1%)
  122. Title                                    : 英语
  123. Language                                 : English
  124. Default                                  : No
  125. Forced                                   : No
  126. Menu
  127. 00:00:00.000                             : en:Chapter 01
  128. 00:06:39.107                             : en:Chapter 02
  129. 00:16:14.891                             : en:Chapter 03
  130. 00:26:30.297                             : en:Chapter 04
  131. 00:34:26.856                             : en:Chapter 05
  132. 00:43:54.298                             : en:Chapter 06
  133. 00:51:29.336                             : en:Chapter 07
  134. 00:59:18.430                             : en:Chapter 08
  135. 01:08:27.312                             : en:Chapter 09
  136. 01:16:19.366                             : en:Chapter 10
  137. 01:24:16.468                             : en:Chapter 11
  138. 01:32:51.524                             : en:Chapter 12
  139. 01:39:07.567                             : en:Chapter 13
  140. 01:45:11.972                             : en:Chapter 14
  141. 01:52:54.935                             : en:Chapter 15
  142. 02:02:04.776                             : en:Chapter 16





此处一般会放置磁力链或种子下载链接,不过此链接需要注册会员才能看到,点击“立即注册”
磁力链下载【下载链接仅对注册会员开放,登陆后可见】
BT9527电影天堂 1、BT9527电影天堂提供的BT文件均来源于互联网抓取,只供网友学习交流、技术提升使用。
2、我们遵守BitTorrent点对点协议原则,任何版权问题请联系原资源发布商,我们不处理任何版权纠纷,谢谢!如有争议请联系邮箱:BT9527#hotmail.com(#换成@)
3、如果您发现某页面或地址有错误,请联系站长邮箱BT9527#hotmail.com(#换成@),我们会尽快处理。您的热心是对BT9527电影天堂最大的支持。
4、本站建议去正规影院观看电影以支持电影行业发展。
最新回复 (0)

你可以在 登录 or 注册 后,对此帖发表评论!

返回
发新帖