加菲猫2[国粤英多音轨/简繁英字幕].Garfield.A.Tail.Of.Two.Kitties.2006.Bluray.1080p.x265.10bit.3Audio-MiniHD 5.78GB

版主小s 3天前 19

✔资源类型:暂未分类   ✔电影年份:2006   ✔电影地区:欧美   ✔电影分类:喜剧

◎译  名 加菲猫2 / 加菲猫2·双猫记 / 加菲猫2之双猫记
◎片  名 Garfield: A Tail of Two Kitties
◎年  代 2006
◎产  地 英国 / 美国
◎类  别 喜剧 / 家庭
◎语  言 英语
◎上映日期 2006-06-16(美国)
◎IMDb链接 https://www.imdb.com/title/tt0455499/
◎豆瓣评分 7.5/10 (84158人评价)
◎豆瓣链接 https://movie.douban.com/subject/1760104/
◎片  长 78 分钟
◎导  演 蒂姆·希尔 Tim Hill (id:1320343)
◎编  剧 乔尔·科恩 Joel Cohen (id:1280989)
       亚历克·索科洛 Alec Sokolow (id:1298012)
       吉姆·戴维斯 Jim Davis (id:1081298)
◎演  员 布瑞金·梅耶 Breckin Meyer (id:1048133)
       詹妮弗·洛芙·休伊特 Jennifer Love Hewitt (id:1027777)
       比利·康诺利 Billy Connolly (id:1036414)
       比尔·默瑞 Bill Murray (id:1054508)
       伊安·艾伯克龙比 Ian Abercrombie (id:1047962)
       罗杰·里斯 Roger Rees (id:1048199)
       露茜·戴维斯 Lucy Davis (id:1013960)
       Lena Cardwell Lena Cardwell (id:1076641)
       维罗妮卡·阿利奇诺 Veronica Alicino (id:1056960)
       简·卡尔 Jane Carr (id:1073154)
       奥利弗·缪尔海德 Oliver Muirhead (id:1331597)
       JB·布兰科 JB Blanc (id:1186083)
       维尔内·沃特森-约翰逊 Vernee Watson-Johnson (id:1161160)
       本·法尔科内 Ben Falcone (id:1330277)
       布莱斯·列侬 Bryce Lenon (id:1200810)
       朱迪斯·沙克妮 Judith Shekoni (id:1352163)
       梅兰妮·托尔伯特 Melanie Tolbert (id:1343759)
       罗斯科·李·布朗尼 Roscoe Lee Browne (id:1055491)
       格雷格·埃利斯 Greg Ellis (id:1081894)
       鲍勃·霍斯金斯 Bob Hoskins (id:1041156)
       珊农·奥斯博内 Sharon Osbourne (id:1027370)
       蒂姆·克里 Tim Curry (id:1002686)
       Joe Pasquale Joe Pasquale (id:1209048)
       简·丽芙丝 Jane Leeves (id:1000062)
       简·霍洛克斯 Jane Horrocks (id:1014047)
       理查德·E·格兰特 Richard E. Grant (id:1048188)
       维尼·琼斯 Vinnie Jones (id:1013804)
       瑞斯·伊凡斯 Rhys Ifans (id:1010549)
       吉姆·皮多克 Jim Piddock (id:1002822)
       尼尔·迪克森 Neil Dickson (id:1419982)
       罗宾·阿特金·唐斯 Robin Atkin Downes (id:1316486)
       吉恩·吉尔平 Jean Gilpin (id:1419991)
       Andy Kreiss Andy Kreiss (id:1188427)
       霍普·利维 Hope Levy (id:1118979)
       贾斯汀·沉卡罗 Justin Shenkarow (id:1141790)
       玛丽莲·德·马尔科 Marie Del Marco (id:1395754)
       Penny Smith Penny Smith (id:1050555)
       乔·唐尼 Joe Towne (id:1186106)
       Martin Tyler Martin Tyler (id:1159461)
       拉斯·米克尔森 Lars Mikkelsen (id:1045177)
       托马斯·维尔姆·詹森 Tomas Villum Jensen (id:1002948)
       刘青云 Sean Lau (id:1007251)
       Mads M. Nielsen Mads M. Nielsen (id:1129102)
       Thomas M?rk Thomas M?rk (id:1131418)
       瀑克·霞宝 Puk Scharbau (id:1147469)
       索伦·希特-拉森 S?ren S?tter-Lassen (id:1149696)
       Annette Heick Annette Heick (id:1179771)
       J?rgen Teytaud J?rgen Teytaud (id:1157220)
       Kirsten Lehfeldt Kirsten Lehfeldt (id:1112025)
       马德斯·克纳伯格 Mads Knarreborg (id:1110011)
       迪克·凯斯 Dick Kays? (id:1111420)
       Kirsten Cenius Kirsten Cenius (id:1072999)
       索斯·埃格林德 S?s Egelind (id:1079816)
       Annevig Schelde Ebbe Annevig Schelde Ebbe (id:1082108)
       Stig Hoffmeyer Stig Hoffmeyer (id:1094508)
       汤米·肯特 Tommy Kenter (id:1103351)
       Mille Lehfeldt Mille Lehfeldt (id:1107092)
       约翰·戴维斯 John Davis (id:1281912)
       克里斯托弗·贝克 Christophe Beck (id:1278180)
       Peter Lyons Collister Peter Lyons Collister (id:1033159)
       Peter S. Elliot Peter S. Elliot (id:1028988)
       Matthew Jon Beck Matthew Jon Beck (id:1302105)
       Carrie Hilton Carrie Hilton (id:1099819)
       Monica Swann Monica Swann (id:1298712)
       托尼·布劳 Tony Burrough (id:1279686)
       Anne D. McCulley Anne D. McCulley (id:1291504)
       Brian Ollman Brian Ollman (id:1008739)
       Cheri Minns Cheri Minns (id:1292175)
       Elaine Carew Elaine Carew (id:1280084)
       Jeri Baker Jeri Baker (id:1277731)
       科琳·卡拉甘 Colleen Callaghan (id:1279892)
       Michele Panelli-Venetis Michele Panelli-Venetis (id:1128109)
        Craig Miller (id:1222628)
       迪恩·康迪 Dean Cundey (id:1032588)
       Ryan Bradley Ryan Bradley (id:1181512)
        Matthew Doll (id:1247898)
       Lisa Goldberg Lisa Goldberg (id:1095778)
       Timothy Hoffman Timothy Hoffman (id:1094813)
        Paul Haman (id:1249061)
        Paul Hurwitz (id:1253101)
       杰弗里·卡斯特·代·奥罗 Jeffrey Castel De Oro (id:1077823)
       Bob Froehlig Bob Froehlig (id:1090157)
        David Luong (id:1240474)
       丹·拉扎洛 Dan Lazarow (id:1106331)
       Mathew Krentz Mathew Krentz (id:1183551)
       Jeffrey Schaper Jeffrey Schaper (id:1189364)
       Samir Patel Samir Patel (id:1196198)
       Lee Pierce Lee Pierce (id:1202725)
       Achint Bansal Achint Bansal (id:1170538)
       马特·马格诺利亚 Matt Magnolia (id:1125852)
       杰森·昆塔纳 Jason Quintana (id:1210284)
       Peter Vaughn Jervis Peter Vaughn Jervis (id:1210905)
       内森·布伦斯基尔 Nathan Brunskill (id:1214021)
       James Dornoff James Dornoff (id:1211993)
       西蒙·阿格 Simon Ager (id:1060292)
       Debora Dunphy Debora Dunphy (id:1282830)
       麦特·沙姆韦 Matt Shumway (id:1305856)
       Craig Calvert Craig Calvert (id:1307283)
       安东尼·哈里斯 Anthony Harris (id:1017246)
       龙子乔 Joe Ksander (id:1308172)
       David Stone David Stone (id:1172061)
       乔丹·本威克 Jordan Benwick (id:1302094)
       道格拉斯·汉斯·史密斯 Douglas Hans Smith (id:1297879)
       Rafal Kaniewski Rafal Kaniewski (id:1310313)
       Jinnie Pak Jinnie Pak (id:1293822)
       Abel Milanes Abel Milanes (id:1310582)
       Lee Allan Lee Allan (id:1311803)
       克里斯托弗·米尔斯 Christopher Mills (id:1007378)
       Matt Logue Matt Logue (id:1290239)
       Chris Doll Chris Doll (id:1035836)
       Mark Intravartolo Mark Intravartolo (id:1287344)
       山本友贵 Yuki Sugimoto (id:1052035)
       Peter Hunt Peter Hunt (id:1287171)

◎简  介
  慵懒搞怪的加菲猫又回来了!                                    
                                这次加菲和主人乔恩(Breckin Meyer 布瑞金?梅耶 饰)远赴英国旅行,一路上它花招不断,主仆俩闹出不少的笑话。巧合的是,伦敦有一只出身名门的猫和加菲长得极其相似,阴差阳错之下它们互换了身份,加菲因此享受了一把它梦寐以求的奢侈而豪华的生活。                                    
                                贵族猫继承了主人的泼天财富,引起了主人贪心亲戚达吉斯(Billy Connolly 饰)的忌恨。达吉斯坏招频出,意欲置其于死地,我们的假贵族加菲面对这个凶险的敌人该如何招架呢?
  1. ##### MediaInfo ######
  2. General
  3. Unique ID                                : 54839895304069816658292149222310493200 (0x2941C7973A8C60778F43A220FB413C10)
  4. Complete name                            : Garfield.A.Tail.Of.Two.Kitties.2006.Bluray.1080p.x265.10bit.3Audio-MiniHD.mkv
  5. Format                                   : Matroska
  6. Format version                           : Version 4
  7. File size                                : 5.78 GiB
  8. Duration                                 : 1 h 25 min
  9. Overall bit rate                         : 9 640 kb/s
  10. Encoded date                             : UTC 2018-01-22 10:09:11
  11. Writing application                      : mkvmerge v20.0.0 ('I Am The Sun') 64-bit
  12. Writing library                          : libebml v1.3.5 + libmatroska v1.4.8
  13. Video
  14. ID                                       : 1
  15. Format                                   : HEVC
  16. Format/Info                              : High Efficiency Video Coding
  17. Format profile                           : Main 10@L4@Main
  18. Codec ID                                 : V_MPEGH/ISO/HEVC
  19. Duration                                 : 1 h 25 min
  20. Bit rate                                 : 8 020 kb/s
  21. Width                                    : 1 920 pixels
  22. Height                                   : 1 040 pixels
  23. Display aspect ratio                     : 1.85:1
  24. Frame rate mode                          : Constant
  25. Frame rate                               : 23.976 (24000/1001/53354) FPS
  26. Color space                              : YUV
  27. Chroma subsampling                       : 4:2:0
  28. Bit depth                                : 10 bits
  29. Bits/(Pixel*Frame)                       : 0.168
  30. Stream size                              : 4.81 GiB (83%)
  31. Writing library                          : x265 2.6+27-2f3c4158cf35:[Windows][MSVC 1900][64 bit] 10bit
  32. Encoding settings                        : cpuid=533541173503 / frame-threads=3 / numa-pools=8 / wpp / no-pmode / no-pme / no-psnr / no-ssim / log-level=2 / input-csp=1 / input-res=1920x1040 / interlace=0 / total-frames=123434 / level-idc=0 / high-tier=1 / uhd-bd=0 / ref=5 / no-allow-non-conformance / no-repeat-headers / annexb / no-aud / no-hrd / info / hash=0 / no-temporal-layers / no-open-gop / min-keyint=1 / keyint=360 / gop-lookahead=0 / bframes=8 / b-adapt=2 / b-pyramid / bframe-bias=0 / rc-lookahead=60 / lookahead-slices=4 / NTMzNTQ=uuDQuD2mJt9fsCf / scenecut=40 / radl=0 / no-intra-refresh / ctu=32 / min-cu-size=8 / rect / no-amp / max-tu-size=16 / tu-inter-depth=2 / tu-intra-depth=2 / limit-tu=4 / rdoq-level=1 / dynamic-rd=0.00 / ssim-rd / signhide / no-tskip / nr-intra=0 / nr-inter=0 / no-constrained-intra / no-strong-intra-smoothing / max-merge=3 / limit-refs=2 / limit-modes / me=3 / subme=5 / merange=25 / temporal-mvp / weightp / weightb / no-analyze-src-pics / deblock=-1:-1 / no-sao / no-sao-non-deblock / rd=4 / no-early-skip / rskip / no-fast-intra / no-tskip-fast / no-cu-lossless / b-intra / no-splitrd-skip / rdpenalty=1 / psy-rd=0.00 / psy-rdoq=5.00 / no-rd-refine / no-lossless / cbqpoffs=-2 / crqpoffs=-2 / rc=crf / crf=20.0 / qcomp=0.70 / qpstep=4 / stats-write=0 / stats-read=0 / ipratio=1.40 / pbratio=1.30 / aq-mode=2 / aq-strength=0.80 / cutree / zone-count=0 / no-strict-cbr / qg-size=16 / no-rc-grain / qpmax=69 / qpmin=0 / no-const-vbv / sar=1 / overscan=0 / videoformat=5 / range=0 / colorprim=1 / transfer=2 / colormatrix=2 / chromaloc=0 / display-window=0 / max-cll=0,0 / min-luma=0 / max-luma=1023 / log2-max-poc-lsb=8 / vui-timing-info / vui-hrd-info / slices=1 / no-opt-qp-pps / no-opt-ref-list-length-pps / no-multi-pass-opt-rps / scenecut-bias=0.05 / no-opt-cu-delta-qp / no-aq-motion / no-hdr / no-hdr-opt / no-dhdr10-opt / analysis-save=(null) / analysis-load=(null) / analysis-reuse-level=5 / scale-factor=0 / refine-intra=0 / refine-inter=0 / refine-mv=0 / no-limit-sao / ctu-info=0 / no-lowpass-dct / refine-mv-type=0 / copy-pic=1
  33. Default                                  : Yes
  34. Forced                                   : No
  35. Color range                              : Limited
  36. Color primaries                          : BT.709
  37. Audio #1
  38. ID                                       : 2
  39. Format                                   : AC-3
  40. Format/Info                              : Audio Coding 3
  41. Commercial name                          : Dolby Digital
  42. Codec ID                                 : A_AC3
  43. Duration                                 : 1 h 25 min
  44. Bit rate mode                            : Constant
  45. Bit rate                                 : 640 kb/s
  46. Channel(s)                               : 6 channels
  47. Channel layout                           : L R C LFE Ls Rs
  48. Sampling rate                            : 48.0 kHz
  49. Frame rate                               : 31.250 FPS (1536 SPF)
  50. Compression mode                         : Lossy
  51. Stream size                              : 393 MiB (7%)
  52. Title                                    : 英语 AC3 640k
  53. Language                                 : English
  54. Service kind                             : Complete Main
  55. Default                                  : Yes
  56. Forced                                   : No
  57. Audio #2
  58. ID                                       : 3
  59. Format                                   : AC-3
  60. Format/Info                              : Audio Coding 3
  61. Commercial name                          : Dolby Digital
  62. Codec ID                                 : A_AC3
  63. Duration                                 : 1 h 25 min
  64. Bit rate mode                            : Constant
  65. Bit rate                                 : 448 kb/s
  66. Channel(s)                               : 6 channels
  67. Channel layout                           : L R C LFE Ls Rs
  68. Sampling rate                            : 48.0 kHz
  69. Frame rate                               : 31.250 FPS (1536 SPF)
  70. Compression mode                         : Lossy
  71. Stream size                              : 275 MiB (5%)
  72. Title                                    : 国语 AC3 448k
  73. Language                                 : Chinese
  74. Service kind                             : Complete Main
  75. Default                                  : No
  76. Forced                                   : No
  77. Audio #3
  78. ID                                       : 4
  79. Format                                   : AC-3
  80. Format/Info                              : Audio Coding 3
  81. Commercial name                          : Dolby Digital
  82. Codec ID                                 : A_AC3
  83. Duration                                 : 1 h 25 min
  84. Bit rate mode                            : Constant
  85. Bit rate                                 : 448 kb/s
  86. Channel(s)                               : 6 channels
  87. Channel layout                           : L R C LFE Ls Rs
  88. Sampling rate                            : 48.0 kHz
  89. Frame rate                               : 31.250 FPS (1536 SPF)
  90. Compression mode                         : Lossy
  91. Stream size                              : 275 MiB (5%)
  92. Title                                    : 粤语 AC3 448k
  93. Language                                 : Chinese
  94. Service kind                             : Complete Main
  95. Default                                  : No
  96. Forced                                   : No
  97. Text #1
  98. ID                                       : 5
  99. Format                                   : PGS
  100. Muxing mode                              : zlib
  101. Codec ID                                 : S_HDMV/PGS
  102. Codec ID/Info                            : Picture based subtitle format used on BDs/HD-DVDs
  103. Duration                                 : 1 h 20 min
  104. Bit rate                                 : 66.9 kb/s
  105. Count of elements                        : 3444
  106. Stream size                              : 38.5 MiB (1%)
  107. Title                                    : 简英双语
  108. Language                                 : Chinese
  109. Default                                  : Yes
  110. Forced                                   : No
  111. Text #2
  112. ID                                       : 6
  113. Format                                   : PGS
  114. Muxing mode                              : zlib
  115. Codec ID                                 : S_HDMV/PGS
  116. Codec ID/Info                            : Picture based subtitle format used on BDs/HD-DVDs
  117. Duration                                 : 1 h 20 min
  118. Bit rate                                 : 34.8 kb/s
  119. Count of elements                        : 3444
  120. Stream size                              : 20.0 MiB (0%)
  121. Title                                    : 简体
  122. Language                                 : Chinese
  123. Default                                  : No
  124. Forced                                   : No
  125. Text #3
  126. ID                                       : 7
  127. Format                                   : PGS
  128. Muxing mode                              : zlib
  129. Codec ID                                 : S_HDMV/PGS
  130. Codec ID/Info                            : Picture based subtitle format used on BDs/HD-DVDs
  131. Duration                                 : 1 h 20 min
  132. Bit rate                                 : 36.0 kb/s
  133. Count of elements                        : 3444
  134. Stream size                              : 20.7 MiB (0%)
  135. Title                                    : 繁体
  136. Language                                 : Chinese
  137. Default                                  : No
  138. Forced                                   : No
  139. Text #4
  140. ID                                       : 8
  141. Format                                   : PGS
  142. Muxing mode                              : zlib
  143. Codec ID                                 : S_HDMV/PGS
  144. Codec ID/Info                            : Picture based subtitle format used on BDs/HD-DVDs
  145. Duration                                 : 1 h 19 min
  146. Bit rate                                 : 40.6 kb/s
  147. Count of elements                        : 3309
  148. Stream size                              : 23.1 MiB (0%)
  149. Title                                    : 英文
  150. Language                                 : English
  151. Default                                  : No
  152. Forced                                   : No





此处一般会放置磁力链或种子下载链接,不过此链接需要注册会员才能看到,点击“立即注册”
磁力链下载【下载链接仅对注册会员开放,登陆后可见】
BT9527电影天堂 1、BT9527电影天堂提供的BT文件均来源于互联网抓取,只供网友学习交流、技术提升使用。
2、我们遵守BitTorrent点对点协议原则,任何版权问题请联系原资源发布商,我们不处理任何版权纠纷,谢谢!如有争议请联系邮箱:BT9527#hotmail.com(#换成@)
3、如果您发现某页面或地址有错误,请联系站长邮箱BT9527#hotmail.com(#换成@),我们会尽快处理。您的热心是对BT9527电影天堂最大的支持。
4、本站建议去正规影院观看电影以支持电影行业发展。
最新回复 (0)

你可以在 登录 or 注册 后,对此帖发表评论!

返回
发新帖