步履不停[简繁英字幕].Still.Walking.2008.1080p.BluRay.DTS.x265-10bit-ENTHD 11.78GB

版主小s 3月前 187

✔资源类型:暂未分类   ✔电影年份:2008   ✔电影地区:日本   ✔电影分类:剧情

◎标  题 步履不停
◎译  名 横山家之味(港 / 台) / 步伐不停 / 即使你走啊走 / 安静的行走 / Still Walking / Even If You Walk and Walk
◎片  名 歩いても 歩いても
◎年  代 2008
◎产  地 日本
◎类  别 剧情 / 家庭
◎语  言 日语
◎上映日期 2008-06-28(日本)
◎IMDb评分 8/10 (15271人评价)
◎IMDb链接 https://www.imdb.com/title/tt1087578/
◎豆瓣链接 https://movie.douban.com/subject/2222996/
◎片  长 115分钟

◎标  签 日本 / 家庭 / 亲情 / 温情 / 人生 / 文艺 / 剧情 / 生活

◎简  介
    “人生路上步履不停,为何总是慢一拍”。                                    
                                  位于偏远小镇的横山一家,生活平静祥和。父亲恭平(原田芳雄 饰)是业已退休的医生,却时时牵挂小镇诊所内的事务。长子纯平继承了父亲的事业,却在15年前为救落水儿童而溺水身亡。次子良多(阿部宽 饰)与父亲意见相左,执意前往异地当起了绘画修复师。多年的打拼换来的却是失业,困顿的良多与带着孩子的由香里(夏川结衣 饰)结婚,相互扶持,继续生活。                                    
                                  又逢纯平的忌日,良多和姐姐千奈美(YOU 饰)带着家人分别赶回家中。平静的横山家再次热闹起来……                                    
                                  本片荣获2009年蓝丝带最佳导演奖和最佳女配角奖(树木希林)、2008年报知电影和2009年电影旬报最佳女配角(树木希林)、2009年每日电影奖最佳男主角(阿部宽)、2008年马塔布拉塔国际电影节评审团大奖和最佳影片。
  1. ##### MediaInfo ######
  2. General
  3. Unique ID                                : 99239766158249313913442376560480494328 (0x4AA8E23C3F8FE4BA1B9B8DF2C6AA22F8)
  4. Complete name                            : Still.Walking.2008.1080p.BluRay.DTS.x265-10bit-ENTHD.mkv
  5. Format                                   : Matroska
  6. Format version                           : Version 4
  7. File size                                : 11.8 GiB
  8. Duration                                 : 1 h 54 min
  9. Overall bit rate mode                    : Variable
  10. Overall bit rate                         : 14.7 Mb/s
  11. Movie name                               : Still Walking 2008 1080p BluRay DTS x265-10bit-HDS
  12. Encoded date                             : UTC 2022-06-21 09:28:42
  13. Writing application                      : mkvmerge v67.0.0 ('Under Stars') 64-bit
  14. Writing library                          : libebml v1.4.2 + libmatroska v1.6.4
  15. Video
  16. ID                                       : 1
  17. Format                                   : HEVC
  18. Format/Info                              : High Efficiency Video Coding
  19. Format profile                           : Main 10@L5.1@High
  20. Codec ID                                 : V_MPEGH/ISO/HEVC
  21. Duration                                 : 1 h 54 min
  22. Bit rate                                 : 12.6 Mb/s
  23. Width                                    : 1 920 pixels
  24. Height                                   : 1 038 pixels
  25. Display aspect ratio                     : 1.85:1
  26. Frame rate mode                          : Constant
  27. Frame rate                               : 23.976 (24000/1001/53354) FPS
  28. Color space                              : YUV
  29. Chroma subsampling                       : 4:2:0
  30. Bit depth                                : 10 bits
  31. Bits/(Pixel*Frame)                       : 0.264
  32. Stream size                              : 10.1 GiB (86%)
  33. Title                                    : hpmlo@HDSky
  34. Writing library                          : x265 - H.265/HEVC codec
  35. Default                                  : Yes
  36. Forced                                   : No
  37. Audio
  38. ID                                       : 2
  39. Format                                   : DTS XLL
  40. Format/Info                              : Digital Theater Systems
  41. Commercial name                          : DTS-HD Master Audio
  42. Codec ID                                 : A_DTS
  43. Duration                                 : 1 h 54 min
  44. Bit rate mode                            : Variable
  45. Bit rate                                 : 2 033 kb/s
  46. Channel(s)                               : 2 channels
  47. Sampling rate                            : 48.0 kHz
  48. Frame rate                               : 93.750 FPS (512 SPF)
  49. Bit depth                                : 24 bits
  50. Compression mode                         : Lossless
  51. Stream size                              : 1.63 GiB (14%)
  52. Title                                    : Japanese
  53. Language                                 : Japanese
  54. Default                                  : Yes
  55. Forced                                   : No
  56. Text #1
  57. ID                                       : 3
  58. Format                                   : PGS
  59. Muxing mode                              : zlib
  60. Codec ID                                 : S_HDMV/PGS
  61. Codec ID/Info                            : Picture based subtitle format used on BDs/HD-DVDs
  62. Duration                                 : 1 h 49 min
  63. Bit rate                                 : 27.1 kb/s
  64. Count of elements                        : 2974
  65. Stream size                              : 21.2 MiB (0%)
  66. Title                                    : CHS
  67. Language                                 : Chinese
  68. Default                                  : Yes
  69. Forced                                   : No
  70. Text #2
  71. ID                                       : 4
  72. Format                                   : PGS
  73. Muxing mode                              : zlib
  74. Codec ID                                 : S_HDMV/PGS
  75. Codec ID/Info                            : Picture based subtitle format used on BDs/HD-DVDs
  76. Duration                                 : 1 h 49 min
  77. Bit rate                                 : 27.5 kb/s
  78. Count of elements                        : 2974
  79. Stream size                              : 21.5 MiB (0%)
  80. Title                                    : CHT
  81. Language                                 : Chinese
  82. Default                                  : Yes
  83. Forced                                   : No
  84. Text #3
  85. ID                                       : 5
  86. Format                                   : PGS
  87. Muxing mode                              : zlib
  88. Codec ID                                 : S_HDMV/PGS
  89. Codec ID/Info                            : Picture based subtitle format used on BDs/HD-DVDs
  90. Duration                                 : 1 h 53 min
  91. Bit rate                                 : 37.3 kb/s
  92. Count of elements                        : 2714
  93. Stream size                              : 30.4 MiB (0%)
  94. Title                                    : ENG
  95. Language                                 : English
  96. Default                                  : Yes
  97. Forced                                   : No
  98. Menu
  99. 00:00:00.000                             : en:Chapter 01
  100. 00:06:06.616                             : en:Chapter 02
  101. 00:11:57.299                             : en:Chapter 03
  102. 00:18:51.421                             : en:Chapter 04
  103. 00:22:45.572                             : en:Chapter 05
  104. 00:27:29.564                             : en:Chapter 06
  105. 00:34:08.921                             : en:Chapter 07
  106. 00:38:10.871                             : en:Chapter 08
  107. 00:43:47.416                             : en:Chapter 09
  108. 00:51:16.823                             : en:Chapter 10
  109. 00:57:52.886                             : en:Chapter 11
  110. 01:05:19.498                             : en:Chapter 12
  111. 01:14:47.566                             : en:Chapter 13
  112. 01:21:17.998                             : en:Chapter 14
  113. 01:28:23.923                             : en:Chapter 15
  114. 01:34:34.794                             : en:Chapter 16
  115. 01:39:02.561                             : en:Chapter 17
  116. 01:44:30.180                             : en:Chapter 18
  117. 01:48:50.774                             : en:Chapter 19





此处一般会放置磁力链或种子下载链接,不过此链接需要注册会员才能看到,点击“立即注册”
磁力链下载【下载链接仅对注册会员开放,登陆后可见】
BT9527电影天堂 1、BT9527电影天堂提供的BT文件均来源于互联网抓取,只供网友学习交流、技术提升使用。
2、我们遵守BitTorrent点对点协议原则,任何版权问题请联系原资源发布商,我们不处理任何版权纠纷,谢谢!如有争议请联系邮箱:BT9527#hotmail.com(#换成@)
3、如果您发现某页面或地址有错误,请联系站长邮箱BT9527#hotmail.com(#换成@),我们会尽快处理。您的热心是对BT9527电影天堂最大的支持。
4、本站建议去正规影院观看电影以支持电影行业发展。
最新回复 (0)

你可以在 登录 or 注册 后,对此帖发表评论!

返回
发新帖