告白[简繁字幕].Confessions.2010.BluRay.1080p.x265.10bit-MiniHD 4.03GB

版主小s 8天前 84

✔资源类型:暂未分类   ✔电影年份:2010   ✔电影地区:日本   ✔电影分类:剧情

◎译  名 告白 / 自白 / 母亲 / Kokuhaku / Confessions
◎年  代 2010
◎产  地 日本
◎类  别 剧情 / 悬疑
◎语  言 日语
◎上映日期 2010-06-05(日本)
◎IMDb链接 https://www.imdb.com/title/tt1590089/
◎豆瓣评分 8.8/10 (627109人评价)
◎豆瓣链接 https://movie.douban.com/subject/4268598/
◎片  长 106分钟
◎导  演 中岛哲也 Tetsuya Nakashima (id:1274495)
◎编  剧 中岛哲也 Tetsuya Nakashima (id:1274495)
       凑佳苗 Kanae Minato (id:1317760)
◎演  员 松隆子 Takako Matsu (id:1003483)
       冈田将生 Masaki Okada (id:1274453)
       木村佳乃 Yoshino Kimura (id:1000705)
       西井幸人 Yukito Nishii (id:1313595)
       桥本爱 Ai Hashimoto (id:1275733)
       芦田爱菜 Mana Ashida (id:1274616)
       三吉彩花 Ayaka Miyoshi (id:1275292)
       藤原薰 Kaoru Fujiwara (id:1313694)
       井之胁海 Kai Inowaki (id:1312156)
       清水尚弥 Naoya Shimizu (id:1322632)
       高桥努 Tsutomu Takahashi (id:1052665)
       一井直树 Naoki Ichii (id:1314769)
       能年玲奈 Rena Nounen (id:1317244)
       新井浩文 Hirofumi Arai (id:1015047)
       野本萤 Hotaru Nomoto (id:1323514)
       大仓裕真 Yuma Okura (id:1346525)
       山口马木也 Makiya Yamaguchi (id:1337523)
       新木优子 Yuko Araki (id:1313718)
       小笠原海 Kai Ogasawara (id:1352635)
       草川拓弥 Takuya Kusakawa (id:1352637)
       伊藤优衣 Yui Ito (id:1363259)
       近藤真彩 Maaya Kond? (id:1376522)
       中岛广稀 Hiroki Nakajima (id:1376890)
       山谷花纯 Yamaya Kasumi (id:1328849)
       刈谷友衣子 Yuiko Kariya (id:1275833)
       春日南歩 Naho Kasuga (id:1469627)
       川村元气 Genki Kawamura (id:1345696)
       阿藤正一 Shoichi Ato (id:1312588)
       尾泽笃史 Atsushi Ozawa (id:1312288)
       小池义幸 Yoshiyuki Koike (id:1310685)
       桑岛十和子 Towako Kuwashima (id:1306830)
       矢野正人 Mizuki Itou (id:1309874)
       增尾隆幸 Takayuki Masuo (id:1310255)

◎简  介
  一所平凡的中学,1年B组即将迎来春假。不知天高地厚的学生们肆意吵闹,殊不知一场绵亘数月的风暴正向他们袭来。级任教师森口悠子(松隆子 饰)全然无视这片混乱,静静地向学生们做出最后的告白。这个单亲妈妈独自抚养着可爱的女儿(芦田爱菜 饰),然而女儿最终在游泳池中溺水身亡。警察 认定这是一起意外,森口则认定女儿死于班上两个学生之手。她不动声色地指责着犯人A和B,并宣布用自己的方式进行复仇。在此之后,森口辞去教师职务,1年B班的学生也心怀惴惴迎来了春假。新学期开始,残酷的风暴袭向了这群无知无畏的少男少女……                                    
                                本片根据湊かなえ的原作改编,并成为2010年电影旬报十佳影片;第34届日本电影学院奖最佳作品、最佳导演、最佳剧本和最佳剪辑4项大奖。

◎获奖情况 (共20项)
  第30届香港电影金像奖 (2011)
  最佳亚洲电影

  第34届日本电影学院奖 (2011)
  最佳影片
  最佳导演
   └──中岛哲也 (id:1274495)
  最佳编剧
   └──中岛哲也 (id:1274495)
  最佳女主角(提名)
   └──松隆子 (id:1003483)
  最佳男配角(提名)
   └──冈田将生 (id:1274453)
  最佳女配角(提名)
   └──木村佳乃 (id:1000705)
  最佳摄影(提名)
  最佳美术指导(提名)
   └──桑岛十和子 (id:1306830)
  最佳照明(提名)
   └──高仓进 (id:1312342)
  最佳录音(提名)
   └──矢野正人 (id:1305102)
  最佳剪辑
   └──小池义幸 (id:1310685)

  第5届亚洲电影大奖 (2011)
  我最喜爱的男女主角 我最喜爱的女主角(提名)
   └──松隆子 (id:1003483)
  最佳电影(提名)
  最佳导演(提名)
   └──中岛哲也 (id:1274495)
  最佳女主角(提名)
   └──松隆子 (id:1003483)
  最佳男配角(提名)
   └──冈田将生 (id:1274453)
  最佳女配角(提名)
   └──木村佳乃 (id:1000705)
  最佳剪接(提名)
   └──小池义幸 (id:1310685)

  第35届报知映画赏 (2010)
  最佳导演
   └──中岛哲也 (id:1274495)

  1. ##### MediaInfo ######
  2. General
  3. Unique ID                                : 208759486908941330957638217441517049389 (0x9D0D9D5D1039DA21034055E69B29162D)
  4. Complete name                            : Confessions.2010.BluRay.1080p.x265.10bit-MiniHD.mkv
  5. Format                                   : Matroska
  6. Format version                           : Version 4
  7. File size                                : 4.03 GiB
  8. Duration                                 : 1 h 46 min
  9. Overall bit rate                         : 5 415 kb/s
  10. Encoded date                             : UTC 2018-02-09 15:29:48
  11. Writing application                      : mkvmerge v20.0.0 ('I Am The Sun') 64-bit
  12. Writing library                          : libebml v1.3.5 + libmatroska v1.4.8
  13. Video
  14. ID                                       : 1
  15. Format                                   : HEVC
  16. Format/Info                              : High Efficiency Video Coding
  17. Format profile                           : Main 10@L4@High
  18. Codec ID                                 : V_MPEGH/ISO/HEVC
  19. Duration                                 : 1 h 46 min
  20. Bit rate                                 : 4 706 kb/s
  21. Width                                    : 1 920 pixels
  22. Height                                   : 1 080 pixels
  23. Display aspect ratio                     : 16:9
  24. Frame rate mode                          : Constant
  25. Frame rate                               : 23.976 (24000/1001/53354) FPS
  26. Color space                              : YUV
  27. Chroma subsampling                       : 4:2:0
  28. Bit depth                                : 10 bits
  29. Bits/(Pixel*Frame)                       : 0.095
  30. Stream size                              : 3.50 GiB (87%)
  31. Title                                    : 视频
  32. Default                                  : Yes
  33. Forced                                   : No
  34. Color range                              : Limited
  35. Color primaries                          : BT.709
  36. Audio
  37. ID                                       : 2
  38. Format                                   : AC-3
  39. Format/Info                              : Audio Coding 3
  40. Commercial name                          : Dolby Digital
  41. Codec ID                                 : A_AC3
  42. Duration                                 : 1 h 46 min
  43. Bit rate mode                            : Constant
  44. Bit rate                                 : 640 kb/s
  45. Channel(s)                               : 6 channels
  46. Channel layout                           : L R C LFE Ls Rs
  47. Sampling rate                            : 48.0 kHz
  48. Frame rate                               : 31.250 FPS (1536 SPF)
  49. Compression mode                         : Lossy
  50. Stream size                              : 488 MiB (12%)
  51. Title                                    : 日语ac3-5.1@640kbps
  52. Language                                 : Japanese
  53. Service kind                             : Complete Main
  54. Default                                  : Yes
  55. Forced                                   : No
  56. Text #1
  57. ID                                       : 3
  58. Format                                   : PGS
  59. Muxing mode                              : zlib
  60. Codec ID                                 : S_HDMV/PGS
  61. Codec ID/Info                            : Picture based subtitle format used on BDs/HD-DVDs
  62. Duration                                 : 1 h 43 min
  63. Bit rate                                 : 30.8 kb/s
  64. Count of elements                        : 3156
  65. Stream size                              : 22.8 MiB (1%)
  66. Title                                    : 简中
  67. Language                                 : Chinese
  68. Default                                  : Yes
  69. Forced                                   : No
  70. Text #2
  71. ID                                       : 4
  72. Format                                   : PGS
  73. Muxing mode                              : zlib
  74. Codec ID                                 : S_HDMV/PGS
  75. Codec ID/Info                            : Picture based subtitle format used on BDs/HD-DVDs
  76. Duration                                 : 1 h 43 min
  77. Bit rate                                 : 32.3 kb/s
  78. Count of elements                        : 3153
  79. Stream size                              : 23.8 MiB (1%)
  80. Title                                    : 繁中
  81. Language                                 : Chinese
  82. Default                                  : No
  83. Forced                                   : No
  84. Text #3
  85. ID                                       : 5
  86. Format                                   : PGS
  87. Muxing mode                              : zlib
  88. Codec ID                                 : S_HDMV/PGS
  89. Codec ID/Info                            : Picture based subtitle format used on BDs/HD-DVDs
  90. Duration                                 : 1 h 42 min
  91. Bit rate                                 : 63.2 kb/s
  92. Count of elements                        : 4455
  93. Stream size                              : 46.6 MiB (1%)
  94. Title                                    : 日文
  95. Language                                 : Japanese
  96. Default                                  : No
  97. Forced                                   : No
  98. Menu
  99. 00:00:00.000                             : en:Chapter 01
  100. 00:30:26.825                             : en:Chapter 02
  101. 00:35:48.646                             : en:Chapter 03
  102. 00:38:08.203                             : en:Chapter 04
  103. 00:41:28.236                             : en:Chapter 05
  104. 00:43:50.878                             : en:Chapter 06
  105. 00:46:02.426                             : en:Chapter 07
  106. 00:47:10.411                             : en:Chapter 08
  107. 00:51:15.990                             : en:Chapter 09
  108. 00:53:45.597                             : en:Chapter 10
  109. 00:55:28.742                             : en:Chapter 11
  110. 00:57:24.274                             : en:Chapter 12
  111. 00:59:48.210                             : en:Chapter 13
  112. 01:09:50.895                             : en:Chapter 14
  113. 01:11:13.811                             : en:Chapter 15
  114. 01:13:25.901                             : en:Chapter 16
  115. 01:15:52.840                             : en:Chapter 17
  116. 01:17:42.658                             : en:Chapter 18
  117. 01:26:08.789                             : en:Chapter 19
  118. 01:29:30.198                             : en:Chapter 20
  119. 01:43:14.021                             : en:Chapter 21
  120. 01:46:34.388                             : en:Chapter 22





此处一般会放置磁力链或种子下载链接,不过此链接需要注册会员才能看到,点击“立即注册”
磁力链下载【下载链接仅对注册会员开放,登陆后可见】
BT9527电影天堂 1、BT9527电影天堂提供的BT文件均来源于互联网抓取,只供网友学习交流、技术提升使用。
2、我们遵守BitTorrent点对点协议原则,任何版权问题请联系原资源发布商,我们不处理任何版权纠纷,谢谢!如有争议请联系邮箱:BT9527#hotmail.com(#换成@)
3、如果您发现某页面或地址有错误,请联系站长邮箱BT9527#hotmail.com(#换成@),我们会尽快处理。您的热心是对BT9527电影天堂最大的支持。
4、本站建议去正规影院观看电影以支持电影行业发展。
最新回复 (0)

你可以在 登录 or 注册 后,对此帖发表评论!

返回
发新帖