反情色[简繁字幕].Antiporno.2016.BluRay.1080p.x265.10bit-MiniHD 2.78GB

版主小s 6天前 340

✔资源类型:暂未分类   ✔电影年份:2016   ✔电影地区:日本   ✔电影分类:剧情

◎译  名 反情色 / 不是色情电影(港) / 这不是色情电影(台) / Antiporno
◎片  名 アンチポルノ
◎年  代 2016
◎产  地 日本
◎类  别 剧情 / 情色
◎语  言 日语
◎上映日期 2016-09-07(巴黎诡奇电影节) / 2017-01-28(日本)
◎IMDb链接 https://www.imdb.com/title/tt5973032/
◎豆瓣评分 6.8/10 (10835人评价)
◎豆瓣链接 https://movie.douban.com/subject/26856907/
◎片  长 78分钟
◎导  演 园子温 Shion Sono (id:1274406)
◎编  剧 园子温 Shion Sono (id:1274406)
◎演  员 富手麻妙 Ami Tomite (id:1352097)
       筒井真理子 Mariko Tsutsui (id:1328157)
       不二子 Fujiko (id:1033115)
       小谷早弥花 Sayaka Kotani (id:1313791)
       吉牟田真奈  (id:1368359)
       麻美 Ami (id:1428123)
       兔丸爱美 Manami Usamaru (id:1456653)
       园子温 Shion Sono (id:1274406)

◎简  介
  电影公司「日活」创业百年,最具代表性的一个品牌,是在七、 八十年代风靡一时的「粉红映画」(日文叫Roman Porno,海外称之为Pink Movie),亦即是浪漫化的成人电影。今年适逢「粉红映画」诞生四十五周年,「日活」特别筹划了「Roman Porno Reboot」计划,找来园子温、行定勳、中田秀夫、盐田明彦、白石和弥五位名导操刀,各拍一部粉红片。五人要跟足过往的游戏规则:每十分钟要有一场情慾戏、片长必须在七十至八十分钟之间、一律只有很低的製作费、要一星期内完成拍摄,其他一切自由发挥。结果证明五位导演不但玩得起,而且还玩得极有一手。                                       
                                    盐田的《湿濡的女人》最先曝光,重新演绎「粉红」经典《湿濡的恋人们》,讲野性少女在海边故意湿身,然后贱价卖身给路过的男人。白石执导的《雌猫们》同样向经典《雌猫们之夜》致敬,新版搬到池袋街头上演,讲在网吧打趸的难民、单...
  1. ##### MediaInfo ######
  2. General
  3. Unique ID                                : 109959854994542295402503970515620013855 (0x52B97F6BFBC398733244D6F31C35271F)
  4. Complete name                            : Antiporno.2016.BluRay.1080p.x265.10bit-MiniHD.mkv
  5. Format                                   : Matroska
  6. Format version                           : Version 4
  7. File size                                : 2.78 GiB
  8. Duration                                 : 1 h 15 min
  9. Overall bit rate                         : 5 236 kb/s
  10. Encoded date                             : UTC 2018-02-06 13:15:56
  11. Writing application                      : mkvmerge v20.0.0 ('I Am The Sun') 64-bit
  12. Writing library                          : libebml v1.3.5 + libmatroska v1.4.8
  13. Video
  14. ID                                       : 1
  15. Format                                   : HEVC
  16. Format/Info                              : High Efficiency Video Coding
  17. Format profile                           : Main 10@L4@High
  18. Codec ID                                 : V_MPEGH/ISO/HEVC
  19. Duration                                 : 1 h 15 min
  20. Bit rate                                 : 4 569 kb/s
  21. Width                                    : 1 920 pixels
  22. Height                                   : 1 036 pixels
  23. Display aspect ratio                     : 1.85:1
  24. Frame rate mode                          : Constant
  25. Frame rate                               : 23.976 (24000/1001/53354) FPS
  26. Color space                              : YUV
  27. Chroma subsampling                       : 4:2:0
  28. Bit depth                                : 10 bits
  29. Bits/(Pixel*Frame)                       : 0.096
  30. Stream size                              : 2.42 GiB (87%)
  31. Writing library                          : x265 2.6+37-1949157705ce:[Windows][MSVC 1900][64 bit] 10bit
  32. Encoding settings                        : cpuid=533541173503 / frame-threads=2 / numa-pools=4 / wpp / no-pmode / no-pme / no-psnr / no-ssim / log-level=2 / input-csp=1 / input-res=1920x1036 / interlace=0 / total-frames=109217 / level-idc=0 / high-tier=1 / uhd-bd=0 / ref=5 / no-allow-non-conformance / no-repeat-headers / annexb / no-aud / no-hrd / info / hash=0 / no-temporal-layers / no-open-gop / min-keyint=1 / keyint=360 / gop-lookahead=0 / bframes=8 / b-adapt=2 / b-pyramid / bframe-bias=0 / rc-lookahead=60 / lookahead-slices=4 / NTMzNTQ=uuDQuD2mJt9fsCf / scenecut=40 / radl=0 / no-intra-refresh / ctu=32 / min-cu-size=8 / no-rect / no-amp / max-tu-size=16 / tu-inter-depth=2 / tu-intra-depth=2 / limit-tu=4 / rdoq-level=1 / dynamic-rd=0.00 / ssim-rd / signhide / no-tskip / nr-intra=0 / nr-inter=0 / no-constrained-intra / no-strong-intra-smoothing / max-merge=3 / limit-refs=2 / limit-modes / me=3 / subme=5 / merange=25 / temporal-mvp / weightp / weightb / no-analyze-src-pics / deblock=-1:-1 / no-sao / no-sao-non-deblock / rd=4 / no-early-skip / rskip / no-fast-intra / no-tskip-fast / no-cu-lossless / b-intra / no-splitrd-skip / rdpenalty=1 / psy-rd=0.00 / psy-rdoq=1.20 / no-rd-refine / no-lossless / cbqpoffs=-2 / crqpoffs=-2 / rc=crf / crf=19.0 / qcomp=0.65 / qpstep=4 / stats-write=0 / stats-read=0 / vbv-maxrate=28000 / vbv-bufsize=30000 / vbv-init=0.9 / crf-max=0.0 / crf-min=0.0 / ipratio=1.40 / pbratio=1.30 / aq-mode=2 / aq-strength=0.80 / cutree / zone-count=0 / no-strict-cbr / qg-size=16 / no-rc-grain / qpmax=69 / qpmin=0 / no-const-vbv / sar=0 / overscan=0 / videoformat=5 / range=0 / colorprim=1 / transfer=2 / colormatrix=2 / chromaloc=0 / display-window=0 / max-cll=0,0 / min-luma=0 / max-luma=1023 / log2-max-poc-lsb=8 / vui-timing-info / vui-hrd-info / slices=1 / no-opt-qp-pps / no-opt-ref-list-length-pps / no-multi-pass-opt-rps / scenecut-bias=0.05 / no-opt-cu-delta-qp / no-aq-motion / no-hdr / no-hdr-opt / no-dhdr10-opt / analysis-reuse-level=5 / scale-factor=0 / refine-intra=0 / refine-inter=0 / refine-mv=0 / no-limit-sao / ctu-info=0 / no-lowpass-dct / refine-mv-type=0 / copy-pic=1
  33. Default                                  : Yes
  34. Forced                                   : No
  35. Color range                              : Limited
  36. Color primaries                          : BT.709
  37. Audio
  38. ID                                       : 2
  39. Format                                   : AC-3
  40. Format/Info                              : Audio Coding 3
  41. Commercial name                          : Dolby Digital
  42. Codec ID                                 : A_AC3
  43. Duration                                 : 1 h 15 min
  44. Bit rate mode                            : Constant
  45. Bit rate                                 : 640 kb/s
  46. Channel(s)                               : 6 channels
  47. Channel layout                           : L R C LFE Ls Rs
  48. Sampling rate                            : 48.0 kHz
  49. Frame rate                               : 31.250 FPS (1536 SPF)
  50. Compression mode                         : Lossy
  51. Stream size                              : 348 MiB (12%)
  52. Language                                 : Japanese
  53. Service kind                             : Complete Main
  54. Default                                  : Yes
  55. Forced                                   : No
  56. Text #1
  57. ID                                       : 3
  58. Format                                   : PGS
  59. Muxing mode                              : zlib
  60. Codec ID                                 : S_HDMV/PGS
  61. Codec ID/Info                            : Picture based subtitle format used on BDs/HD-DVDs
  62. Duration                                 : 1 h 12 min
  63. Bit rate                                 : 21.5 kb/s
  64. Count of elements                        : 1603
  65. Stream size                              : 11.1 MiB (0%)
  66. Title                                    : 简体中文
  67. Language                                 : Chinese
  68. Default                                  : Yes
  69. Forced                                   : No
  70. Text #2
  71. ID                                       : 4
  72. Format                                   : PGS
  73. Muxing mode                              : zlib
  74. Codec ID                                 : S_HDMV/PGS
  75. Codec ID/Info                            : Picture based subtitle format used on BDs/HD-DVDs
  76. Duration                                 : 1 h 12 min
  77. Bit rate                                 : 20.0 kb/s
  78. Count of elements                        : 1603
  79. Stream size                              : 10.3 MiB (0%)
  80. Title                                    : 繁体中文
  81. Language                                 : Chinese
  82. Default                                  : No
  83. Forced                                   : No
  84. Menu
  85. 00:00:00.000                             : en:Chapter 1
  86. 00:09:29.068                             : en:Chapter 2
  87. 00:29:33.021                             : en:Chapter 3
  88. 00:44:18.238                             : en:Chapter 4
  89. 00:57:09.217                             : en:Chapter 5
  90. 01:08:55.214                             : en:Chapter 6





此处一般会放置磁力链或种子下载链接,不过此链接需要注册会员才能看到,点击“立即注册”
磁力链下载【下载链接仅对注册会员开放,登陆后可见】
BT9527电影天堂 1、BT9527电影天堂提供的BT文件均来源于互联网抓取,只供网友学习交流、技术提升使用。
2、我们遵守BitTorrent点对点协议原则,任何版权问题请联系原资源发布商,我们不处理任何版权纠纷,谢谢!如有争议请联系邮箱:BT9527#hotmail.com(#换成@)
3、如果您发现某页面或地址有错误,请联系站长邮箱BT9527#hotmail.com(#换成@),我们会尽快处理。您的热心是对BT9527电影天堂最大的支持。
4、本站建议去正规影院观看电影以支持电影行业发展。
最新回复 (0)

你可以在 登录 or 注册 后,对此帖发表评论!

返回
发新帖