午夜凶铃[简繁英字幕].Ring.1998.BluRay.1080p.x265.10bit-MiniHD 4.25GB

版主小s 3月前 218

✔资源类型:暂未分类   ✔电影年份:更 早   ✔电影地区:日本   ✔电影分类:悬疑

◎译  名 午夜凶铃 / 七夜怪谈(台) / 午夜凶灵 / Ring
◎片  名 リング
◎年  代 1998
◎产  地 日本
◎类  别 悬疑 / 恐怖
◎语  言 日语
◎上映日期 1998-01-31(日本)
◎IMDb链接 https://www.imdb.com/title/tt0178868/
◎豆瓣评分 7.5/10 (117940人评价)
◎豆瓣链接 https://movie.douban.com/subject/1307696/
◎片  长 96 分钟
◎导  演 中田秀夫 Hideo Nakata (id:1009618)
◎编  剧 高桥洋 Hiroshi Takahashi (id:1298843)
       铃木光司 K?ji Suzuki (id:1045626)
◎演  员 松岛菜菜子 Nanako Matsushima (id:1028170)
       真田广之 Hiroyuki Sanada (id:1027879)
       竹内结子 Y?ko Takeuchi (id:1151757)
       中谷美纪 Miki Nakatani (id:1014478)
       佐藤仁美 Hitomi Sat? (id:1145827)
       佐久间洋 Hiroshi Sakuma (id:1137544)
       高山隆志 Takashi Takayama (id:1149833)
       柳忧怜 Y?rei Yanagi (id:1001599)
       大岛蓉子 Y?ko Ohshima (id:1322047)
       志水季里子 Kiriko Shimizu (id:1329981)
       直濑遥步 Ayumu Naose (id:1132031)
       大高力也 Rikiya ?taka (id:1131523)
       小市慢太郎 Mantar? Koichi (id:1007656)
       松重丰 Yutaka Matsushige (id:1016968)
       雅子 Masako (id:1023922)
       伴大介 Daisuke Ban (id:1046091)
       村松克巳 Katsumi Muramatsu (id:1051764)
       真琴绯田 Makoto Kakeda (id:1104606)
       松丸祐子 Yoshiko Matsumaru (id:1118928)
       沼田曜一 Y?ichi Numata (id:1127543)
       伊野尾理枝 Rie Ino'o (id:1434505)
       原正人 Masato Hara (id:1286010)
       仙頭武則 Takenori Sent? (id:1145915)
       一濑隆重 Takashige Ichise (id:1016939)
       川井宪次 Kenji Kawai (id:1048442)
       林淳一郎 Jun'ichir? Hayashi (id:1286263)
       齐藤岩雄 Iwao Sait? (id:1296469)

◎简  介
  女高中生友子和同学共同看了一盘来历不明的录像带,七天后,她和她的同学相继死去,这引起了女记者浅川(松岛菜菜子 饰)的关注,她决定调查这个事件的真相。                                    
                                浅川了解到友子死前曾因看一盘录像带惊吓过度而住院,于是她找到了出租那盘录像带的旅店,也租了那盘没有名字的带子,打开录像机,极度恐怖的画面让浅川情绪几近崩溃。                                    
                                浅川的前夫高山(真田广之 饰)此时来到了她的身边,并且复制了一盘录象带决定和她一起研究。而他们只有在七天之内揭开录像带的秘密才能活下去……

◎获奖情况 (共2项)
  第22届日本电影学院奖 (1999)
  话题奖 最具话题影片奖
  最佳女主角(提名)
   └──松岛菜菜子 (id:1028170)

  1. ##### MediaInfo ######
  2. General
  3. Unique ID                                : 90033675183828559588576794823169094832 (0x43BBDAE8181FA26CAA43BC3ADC5734B0)
  4. Complete name                            : Ring.1998.BluRay.1080p.x265.10bit-MiniHD.mkv
  5. Format                                   : Matroska
  6. Format version                           : Version 4
  7. File size                                : 4.25 GiB
  8. Duration                                 : 1 h 35 min
  9. Overall bit rate                         : 6 388 kb/s
  10. Encoded date                             : UTC 2018-01-26 02:05:41
  11. Writing application                      : mkvmerge v20.0.0 ('I Am The Sun') 64-bit
  12. Writing library                          : libebml v1.3.5 + libmatroska v1.4.8
  13. Video
  14. ID                                       : 1
  15. Format                                   : HEVC
  16. Format/Info                              : High Efficiency Video Coding
  17. Format profile                           : Main 10@L4@High
  18. Codec ID                                 : V_MPEGH/ISO/HEVC
  19. Duration                                 : 1 h 35 min
  20. Bit rate                                 : 5 688 kb/s
  21. Width                                    : 1 920 pixels
  22. Height                                   : 1 040 pixels
  23. Display aspect ratio                     : 1.85:1
  24. Frame rate mode                          : Constant
  25. Frame rate                               : 23.976 (24000/1001/53354) FPS
  26. Color space                              : YUV
  27. Chroma subsampling                       : 4:2:0
  28. Bit depth                                : 10 bits
  29. Bits/(Pixel*Frame)                       : 0.119
  30. Stream size                              : 3.79 GiB (89%)
  31. Title                                    : 视频
  32. Default                                  : Yes
  33. Forced                                   : No
  34. Color range                              : Limited
  35. Color primaries                          : BT.709
  36. Audio
  37. ID                                       : 2
  38. Format                                   : AC-3
  39. Format/Info                              : Audio Coding 3
  40. Commercial name                          : Dolby Digital
  41. Codec ID                                 : A_AC3
  42. Duration                                 : 1 h 35 min
  43. Bit rate mode                            : Constant
  44. Bit rate                                 : 640 kb/s
  45. Channel(s)                               : 6 channels
  46. Channel layout                           : L R C LFE Ls Rs
  47. Sampling rate                            : 48.0 kHz
  48. Frame rate                               : 31.250 FPS (1536 SPF)
  49. Compression mode                         : Lossy
  50. Stream size                              : 436 MiB (10%)
  51. Title                                    : 日语ac3-5.1@640kbps
  52. Language                                 : Japanese
  53. Service kind                             : Complete Main
  54. Default                                  : Yes
  55. Forced                                   : No
  56. Text #1
  57. ID                                       : 3
  58. Format                                   : PGS
  59. Muxing mode                              : zlib
  60. Codec ID                                 : S_HDMV/PGS
  61. Codec ID/Info                            : Picture based subtitle format used on BDs/HD-DVDs
  62. Duration                                 : 1 h 31 min
  63. Bit rate                                 : 5 474 b/s
  64. Count of elements                        : 762
  65. Stream size                              : 3.59 MiB (0%)
  66. Title                                    : 简中
  67. Language                                 : Chinese
  68. Default                                  : Yes
  69. Forced                                   : No
  70. Text #2
  71. ID                                       : 4
  72. Format                                   : PGS
  73. Muxing mode                              : zlib
  74. Codec ID                                 : S_HDMV/PGS
  75. Codec ID/Info                            : Picture based subtitle format used on BDs/HD-DVDs
  76. Duration                                 : 1 h 31 min
  77. Bit rate                                 : 5 702 b/s
  78. Count of elements                        : 762
  79. Stream size                              : 3.74 MiB (0%)
  80. Title                                    : 繁中
  81. Language                                 : Chinese
  82. Default                                  : No
  83. Forced                                   : No
  84. Text #3
  85. ID                                       : 5
  86. Format                                   : PGS
  87. Muxing mode                              : zlib
  88. Codec ID                                 : S_HDMV/PGS
  89. Codec ID/Info                            : Picture based subtitle format used on BDs/HD-DVDs
  90. Duration                                 : 1 h 31 min
  91. Bit rate                                 : 14.4 kb/s
  92. Count of elements                        : 1178
  93. Stream size                              : 9.47 MiB (0%)
  94. Title                                    : 英文
  95. Language                                 : English
  96. Default                                  : No
  97. Forced                                   : No
  98. Text #4
  99. ID                                       : 6
  100. Format                                   : PGS
  101. Muxing mode                              : zlib
  102. Codec ID                                 : S_HDMV/PGS
  103. Codec ID/Info                            : Picture based subtitle format used on BDs/HD-DVDs
  104. Duration                                 : 1 h 33 min
  105. Bit rate                                 : 116 kb/s
  106. Count of elements                        : 4794
  107. Stream size                              : 77.6 MiB (2%)
  108. Title                                    : 日文
  109. Language                                 : Japanese
  110. Default                                  : No
  111. Forced                                   : No
  112. Menu
  113. 00:00:00.000                             : en:Chapter 01
  114. 00:01:33.343                             : en:Chapter 02
  115. 00:14:07.597                             : en:Chapter 03
  116. 00:17:07.068                             : en:Chapter 04
  117. 00:22:09.203                             : en:Chapter 05
  118. 00:26:22.456                             : en:Chapter 06
  119. 00:27:32.651                             : en:Chapter 07
  120. 00:30:04.845                             : en:Chapter 08
  121. 00:31:45.612                             : en:Chapter 09
  122. 00:34:04.417                             : en:Chapter 10
  123. 00:42:52.779                             : en:Chapter 11
  124. 00:45:30.269                             : en:Chapter 12
  125. 00:48:16.602                             : en:Chapter 13
  126. 00:50:45.584                             : en:Chapter 14
  127. 00:57:03.920                             : en:Chapter 15
  128. 00:59:11.798                             : en:Chapter 16
  129. 01:07:59.742                             : en:Chapter 17
  130. 01:11:57.396                             : en:Chapter 18
  131. 01:25:02.097                             : en:Chapter 19
  132. 01:31:34.322                             : en:Chapter 20
  133. 01:35:16.711                             : en:Chapter 21





此处一般会放置磁力链或种子下载链接,不过此链接需要注册会员才能看到,点击“立即注册”
磁力链下载【下载链接仅对注册会员开放,登陆后可见】
BT9527电影天堂 1、BT9527电影天堂提供的BT文件均来源于互联网抓取,只供网友学习交流、技术提升使用。
2、我们遵守BitTorrent点对点协议原则,任何版权问题请联系原资源发布商,我们不处理任何版权纠纷,谢谢!如有争议请联系邮箱:BT9527#hotmail.com(#换成@)
3、如果您发现某页面或地址有错误,请联系站长邮箱BT9527#hotmail.com(#换成@),我们会尽快处理。您的热心是对BT9527电影天堂最大的支持。
4、本站建议去正规影院观看电影以支持电影行业发展。
最新回复 (0)

你可以在 登录 or 注册 后,对此帖发表评论!

返回
发新帖