冰冷热带鱼[简繁字幕].Cold.Fish.2010.BluRay.1080p.x265.10bit-MiniHD 7.92GB

版主小s 12天前 128

✔资源类型:暂未分类   ✔电影年份:2010   ✔电影地区:日本   ✔电影分类:剧情

◎译  名 冰冷热带鱼 / 冷血金鱼佬(港) / Cold Fish
◎片  名 冷たい熱帯魚
◎年  代 2010
◎产  地 日本
◎类  别 剧情 / 惊悚 / 犯罪
◎语  言 日语
◎上映日期 2010-09-07(威尼斯电影节) / 2011-01-29(日本)
◎IMDb链接 https://www.imdb.com/title/tt1632547/
◎豆瓣评分 7.7/10 (41549人评价)
◎豆瓣链接 https://movie.douban.com/subject/4830236/
◎片  长 146分钟
◎导  演 园子温 Shion Sono (id:1274406)
◎编  剧 园子温 Shion Sono (id:1274406)
◎演  员 吹越满 Mitsuru Fukikoshi (id:1008302)
       黑泽明日香 Asuka Kurosawa (id:1037865)
       神乐坂惠 Megumi Kagurazaka (id:1314353)
       绪方义博 Denden (id:1316641)
       芦川诚 Makoto Ashikawa (id:1001839)
       尾原光 Hikari Kajiwara (id:1316943)
       三浦诚己 Masaki Miura (id:1043336)
       渡边哲 Tetsu Watanabe (id:1321530)
       濑户夏实  (id:1367020)
       诹访太朗 Tar? Suwa (id:1151085)
       中泉英雄 Hideo Nakaizumi (id:1313655)
       裵明 Jeong Myung (id:1368152)

◎简  介
  富士见市某经营热带鱼的商店,居住着社本一家三口。户主信介(吹越满 饰)在妻子去世后不久便娶了美丽的妙子,此举令女儿美津子大为不满,因此家中的气氛总是压抑凝重,妙子更是小心翼翼,生怕因自己惹出事端。某晚,美津子因在行窃被超市所扣留,社本夫妇匆忙前往,多亏热情的陌生男子村田幸雄出面方得以脱身。村田也是一家热带鱼商店的老板,他诚恳地邀请社见一家到他的店中做客,并愿意聘用美津子为职员。社本夫妇虽有些无所适从,却不自觉地被村田牵着鼻子走。不久后,村田邀请信介为合作人,结果竟在信介的面前杀死了一个质疑自己的男人。一向唯唯诺诺的信介,被迫成为了疯狂的村田毁尸灭迹的帮凶……                                    
                                本片根据1993年震惊日本的琦玉爱犬家连续杀人事件改编。

◎获奖情况 (共4项)
  第67届威尼斯电影节 (2010)
  地平线单元奖 最佳影片(提名)
   └──园子温 (id:1274406)

  第35届日本电影学院奖 (2012)
  最佳男配角
   └──绪方义博 (id:1316641)

  第36届报知映画赏 (2011)
  最佳导演
   └──园子温 (id:1274406)
  最佳男配角
   └──绪方义博 (id:1316641)

  1. ##### MediaInfo ######
  2. General
  3. Unique ID                                : 222551245276482429823451663268242656429 (0xA76DCF8CE8EFD7DD8076DE272C4E0CAD)
  4. Complete name                            : Cold.Fish.2010.BluRay.1080p.x265.10bit-MiniHD.mkv
  5. Format                                   : Matroska
  6. Format version                           : Version 4
  7. File size                                : 7.92 GiB
  8. Duration                                 : 2 h 26 min
  9. Overall bit rate                         : 7 760 kb/s
  10. Encoded date                             : UTC 2018-01-25 05:32:31
  11. Writing application                      : mkvmerge v8.5.2 ('Crosses') 32bit
  12. Writing library                          : libebml v1.3.3 + libmatroska v1.4.4
  13. Video
  14. ID                                       : 1
  15. Format                                   : HEVC
  16. Format/Info                              : High Efficiency Video Coding
  17. Format profile                           : Main 10@L4@Main
  18. Codec ID                                 : V_MPEGH/ISO/HEVC
  19. Duration                                 : 2 h 26 min
  20. Bit rate                                 : 7 096 kb/s
  21. Width                                    : 1 920 pixels
  22. Height                                   : 1 040 pixels
  23. Display aspect ratio                     : 1.85:1
  24. Frame rate mode                          : Constant
  25. Frame rate                               : 23.976 (24000/1001/53354) FPS
  26. Color space                              : YUV
  27. Chroma subsampling                       : 4:2:0
  28. Bit depth                                : 10 bits
  29. Bits/(Pixel*Frame)                       : 0.148
  30. Stream size                              : 7.24 GiB (91%)
  31. Writing library                          : x265 2.6+14-f09f3b4a2115:[Windows][GCC 7.2.0][64 bit] 10bit
  32. Encoding settings                        : cpuid=533541173503 / frame-threads=2 / numa-pools=4 / wpp / no-pmode / no-pme / no-psnr / no-ssim / log-level=2 / input-csp=1 / input-res=1920x1040 / interlace=0 / total-frames=210240 / level-idc=0 / high-tier=1 / uhd-bd=0 / ref=5 / no-allow-non-conformance / no-repeat-headers / annexb / no-aud / no-hrd / info / hash=0 / no-temporal-layers / no-open-gop / min-keyint=1 / keyint=360 / gop-lookahead=0 / bframes=8 / b-adapt=2 / b-pyramid / bframe-bias=0 / rc-lookahead=60 / lookahead-slices=4 / NTMzNTQ=uuDQuD2mJt9fsCf / scenecut=40 / no-intra-refresh / ctu=32 / min-cu-size=8 / no-rect / no-amp / max-tu-size=16 / tu-inter-depth=2 / tu-intra-depth=2 / limit-tu=4 / rdoq-level=2 / dynamic-rd=0.00 / ssim-rd / signhide / no-tskip / nr-intra=0 / nr-inter=0 / no-constrained-intra / no-strong-intra-smoothing / max-merge=3 / limit-refs=2 / limit-modes / me=3 / subme=5 / merange=25 / temporal-mvp / weightp / weightb / no-analyze-src-pics / deblock=-1:-1 / no-sao / no-sao-non-deblock / rd=4 / no-early-skip / no-rskip / no-fast-intra / no-tskip-fast / no-cu-lossless / b-intra / no-splitrd-skip / rdpenalty=1 / psy-rd=0.00 / psy-rdoq=5.00 / no-rd-refine / analysis-reuse-mode=0 / no-lossless / cbqpoffs=-2 / crqpoffs=-2 / rc=crf / crf=21.0 / qcomp=0.65 / qpstep=4 / stats-write=0 / stats-read=0 / ipratio=1.40 / pbratio=1.30 / aq-mode=2 / aq-strength=0.80 / cutree / zone-count=0 / no-strict-cbr / qg-size=16 / no-rc-grain / qpmax=69 / qpmin=0 / no-const-vbv / sar=1 / overscan=0 / videoformat=5 / range=0 / colorprim=1 / transfer=2 / colormatrix=2 / chromaloc=0 / display-window=0 / max-cll=0,0 / min-luma=0 / max-luma=1023 / log2-max-poc-lsb=8 / vui-timing-info / vui-hrd-info / slices=1 / no-opt-qp-pps / no-opt-ref-list-length-pps / no-multi-pass-opt-rps / scenecut-bias=0.05 / no-opt-cu-delta-qp / no-aq-motion / no-hdr / no-hdr-opt / no-dhdr10-opt / analysis-reuse-level=5 / scale-factor=0 / refine-intra=0 / refine-inter=0 / refine-mv=0 / no-limit-sao / ctu-info=0 / no-lowpass-dct / refine-mv-type=0 / copy-pic=1
  33. Default                                  : Yes
  34. Forced                                   : No
  35. Color range                              : Limited
  36. Color primaries                          : BT.709
  37. Audio
  38. ID                                       : 2
  39. Format                                   : AC-3
  40. Format/Info                              : Audio Coding 3
  41. Commercial name                          : Dolby Digital
  42. Codec ID                                 : A_AC3
  43. Duration                                 : 2 h 26 min
  44. Bit rate mode                            : Constant
  45. Bit rate                                 : 640 kb/s
  46. Channel(s)                               : 6 channels
  47. Channel layout                           : L R C LFE Ls Rs
  48. Sampling rate                            : 48.0 kHz
  49. Frame rate                               : 31.250 FPS (1536 SPF)
  50. Compression mode                         : Lossy
  51. Stream size                              : 669 MiB (8%)
  52. Service kind                             : Complete Main
  53. Default                                  : Yes
  54. Forced                                   : No
  55. Text #1
  56. ID                                       : 3
  57. Format                                   : PGS
  58. Muxing mode                              : zlib
  59. Codec ID                                 : S_HDMV/PGS
  60. Codec ID/Info                            : Picture based subtitle format used on BDs/HD-DVDs
  61. Duration                                 : 2 h 22 min
  62. Bit rate                                 : 9 795 b/s
  63. Count of elements                        : 3183
  64. Stream size                              : 10.0 MiB (0%)
  65. Title                                    : CHS
  66. Language                                 : Chinese
  67. Default                                  : Yes
  68. Forced                                   : Yes
  69. Text #2
  70. ID                                       : 4
  71. Format                                   : PGS
  72. Muxing mode                              : zlib
  73. Codec ID                                 : S_HDMV/PGS
  74. Codec ID/Info                            : Picture based subtitle format used on BDs/HD-DVDs
  75. Duration                                 : 2 h 22 min
  76. Bit rate                                 : 12.8 kb/s
  77. Count of elements                        : 3183
  78. Stream size                              : 13.1 MiB (0%)
  79. Title                                    : CHT
  80. Language                                 : Chinese
  81. Default                                  : No
  82. Forced                                   : No
  83. Menu
  84. 00:00:00.000                             : en:Chapter 01
  85. 00:05:42.926                             : en:Chapter 02
  86. 00:09:51.758                             : en:Chapter 03
  87. 00:18:00.913                             : en:Chapter 04
  88. 00:21:42.384                             : en:Chapter 05
  89. 00:34:07.254                             : en:Chapter 06
  90. 00:42:00.309                             : en:Chapter 07
  91. 00:47:28.262                             : en:Chapter 08
  92. 00:58:01.186                             : en:Chapter 09
  93. 01:05:46.359                             : en:Chapter 10
  94. 01:12:08.449                             : en:Chapter 11
  95. 01:19:45.948                             : en:Chapter 12
  96. 01:27:25.240                             : en:Chapter 13
  97. 01:32:55.653                             : en:Chapter 14
  98. 01:41:34.547                             : en:Chapter 15
  99. 01:49:54.421                             : en:Chapter 16
  100. 02:03:10.967                             : en:Chapter 17
  101. 02:12:47.877                             : en:Chapter 18
  102. 02:17:49.845                             : en:Chapter 19
  103. 02:22:55.442                             : en:Chapter 20





此处一般会放置磁力链或种子下载链接,不过此链接需要注册会员才能看到,点击“立即注册”
磁力链下载【下载链接仅对注册会员开放,登陆后可见】
BT9527电影天堂 1、BT9527电影天堂提供的BT文件均来源于互联网抓取,只供网友学习交流、技术提升使用。
2、我们遵守BitTorrent点对点协议原则,任何版权问题请联系原资源发布商,我们不处理任何版权纠纷,谢谢!如有争议请联系邮箱:BT9527#hotmail.com(#换成@)
3、如果您发现某页面或地址有错误,请联系站长邮箱BT9527#hotmail.com(#换成@),我们会尽快处理。您的热心是对BT9527电影天堂最大的支持。
4、本站建议去正规影院观看电影以支持电影行业发展。
最新回复 (0)

你可以在 登录 or 注册 后,对此帖发表评论!

返回
发新帖