城市猎人[国粤多音轨/繁英字幕].City.Hunter.1993.BluRay.1080p.x265.10bit.2Audio-MiniHD 6.28GB

版主小s 3月前 167

✔资源类型:暂未分类   ✔电影年份:更 早   ✔电影地区:香港   ✔电影分类:喜剧

◎译  名 城市猎人 / City Hunter
◎片  名 城市獵人
◎年  代 1993
◎产  地 中国香港 / 日本
◎类  别 喜剧 / 动作 / 爱情
◎语  言 粤语
◎上映日期 1993-01-16(中国香港) / 1993-03-20(日本)
◎IMDb链接 https://www.imdb.com/title/tt0103950/
◎豆瓣评分 7.7/10 (103169人评价)
◎豆瓣链接 https://movie.douban.com/subject/1295064/
◎片  长 100分钟
◎导  演 王晶 Jing Wong (id:1274331)
◎编  剧 王晶 Jing Wong (id:1274331)
◎演  员 成龙 Jackie Chan (id:1054531)
       王祖贤 Joey Wong (id:1166896)
       邱淑贞 Chingmy Yau (id:1048296)
       后藤久美子 Kumiko Goto (id:1001098)
       单立文 Pal Sinn (id:1274325)
       黎明 Leon Lai (id:1036978)
       王敏德 Michael Wong (id:1162139)
       葛民辉 Eric Kot (id:1017040)
       唐宁 Leila Tong (id:1038227)
       卢惠光 Ken Lo (id:1032633)
       温翠苹 Tsui Ping Wen (id:1338257)
       林海峰 Jan Lamb (id:1006502)
       孟海 Hoi Mang (id:1286778)
       盖瑞·丹尼尔斯 Gary Daniels (id:1044907)
       段伟伦 William Duan (id:1419931)
       麦克·里德 Mike Leeder (id:1382791)
       政宗一成 Issei Masamune (id:1401488)
       理查德·诺顿 Richard Norton (id:1136698)
       叶晨 San Yip (id:1380091)
       蔡澜 Lam Chua (id:1324962)
       戴乐民 Romeo Díaz (id:1282921)
       李子衡 Gigo Lee (id:1289673)
       周惠坤 Thomas Chow (id:1330717)

◎简  介
  私家侦探孟波(成龙)与死去搭档的妹妹惠香(王祖贤)刚同报业大王今村商讨完寻找其失踪女儿清子(后藤久美子)下落的办法,就见清子与若干滑板少年在街道上左穿右插,一番穷追后,清子消失。惠香本想到孟波家后为孟波举办生日舞会,不想推门发现早已有七个美女正望穿秋水,一怒之下,惠香扬言会与表哥大脚板(单立文)在赌船“富贵号”上预支蜜月。                                    
                                孟波赶到码头欲向惠香解释,不想左找右找不见其踪影,此时“富贵号”启航在即,孟波混在鱼贯涌至的游客中上了船,清子以及装扮成性感女郎的香港警察芽子(邱淑贞)也在这条船上。三个女人一台戏,何况又加一个好斗、好色的孟波。
  1. ##### MediaInfo ######
  2. General
  3. Unique ID                                : 153431738240855724337632965223087141008 (0x736DE0BEB16AD6C2F1EF8F0DFB6CF090)
  4. Complete name                            : City.Hunter.1993.BluRay.1080p.x265.10bit.2Audio-MiniHD.mkv
  5. Format                                   : Matroska
  6. Format version                           : Version 4
  7. File size                                : 6.28 GiB
  8. Duration                                 : 1 h 39 min
  9. Overall bit rate                         : 9 080 kb/s
  10. Encoded date                             : UTC 2018-02-03 14:16:45
  11. Writing application                      : mkvmerge v20.0.0 ('I Am The Sun') 64-bit
  12. Writing library                          : libebml v1.3.5 + libmatroska v1.4.8
  13. Video
  14. ID                                       : 1
  15. Format                                   : HEVC
  16. Format/Info                              : High Efficiency Video Coding
  17. Format profile                           : Main 10@L4@High
  18. Codec ID                                 : V_MPEGH/ISO/HEVC
  19. Duration                                 : 1 h 39 min
  20. Bit rate                                 : 7 779 kb/s
  21. Width                                    : 1 920 pixels
  22. Height                                   : 1 036 pixels
  23. Display aspect ratio                     : 1.85:1
  24. Frame rate mode                          : Constant
  25. Frame rate                               : 24.000 FPS
  26. Color space                              : YUV
  27. Chroma subsampling                       : 4:2:0
  28. Bit depth                                : 10 bits
  29. Bits/(Pixel*Frame)                       : 0.163
  30. Stream size                              : 5.38 GiB (86%)
  31. Writing library                          : x265 2.6+26-b4edf9b44d23:[Windows][MSVC 1900][64 bit] 10bit+8bit
  32. Encoding settings                        : cpuid=533541173503 / frame-threads=2 / numa-pools=4 / wpp / no-pmode / no-pme / no-psnr / no-ssim / log-level=2 / input-csp=1 / input-res=1920x1036 / interlace=0 / total-frames=142646 / level-idc=0 / high-tier=1 / uhd-bd=0 / ref=5 / no-allow-non-conformance / no-repeat-headers / annexb / no-aud / no-hrd / info / hash=0 / no-temporal-layers / no-open-gop / min-keyint=1 / keyint=360 / gop-lookahead=0 / bframes=9 / b-adapt=2 / b-pyramid / bframe-bias=0 / rc-lookahead=60 / lookahead-slices=4 / NTMzNTQ=uuDQuD2mJt9fsCf / scenecut=40 / radl=0 / no-intra-refresh / ctu=32 / min-cu-size=8 / no-rect / no-amp / max-tu-size=16 / tu-inter-depth=2 / tu-intra-depth=2 / limit-tu=4 / rdoq-level=1 / dynamic-rd=0.00 / ssim-rd / signhide / no-tskip / nr-intra=0 / nr-inter=0 / no-constrained-intra / no-strong-intra-smoothing / max-merge=3 / limit-refs=2 / limit-modes / me=3 / subme=5 / merange=25 / temporal-mvp / weightp / weightb / no-analyze-src-pics / deblock=-1:-1 / no-sao / no-sao-non-deblock / rd=4 / no-early-skip / rskip / no-fast-intra / no-tskip-fast / no-cu-lossless / b-intra / no-splitrd-skip / rdpenalty=1 / psy-rd=0.00 / psy-rdoq=2.00 / no-rd-refine / no-lossless / cbqpoffs=-2 / crqpoffs=-2 / rc=crf / crf=21.0 / qcomp=0.70 / qpstep=4 / stats-write=0 / stats-read=0 / vbv-maxrate=13000 / vbv-bufsize=14000 / vbv-init=0.9 / crf-max=0.0 / crf-min=0.0 / ipratio=1.40 / pbratio=1.30 / aq-mode=2 / aq-strength=0.80 / cutree / zone-count=0 / no-strict-cbr / qg-size=16 / no-rc-grain / qpmax=69 / qpmin=0 / no-const-vbv / sar=0 / overscan=0 / videoformat=5 / range=0 / colorprim=1 / transfer=2 / colormatrix=2 / chromaloc=0 / display-window=0 / max-cll=0,0 / min-luma=0 / max-luma=1023 / log2-max-poc-lsb=8 / vui-timing-info / vui-hrd-info / slices=1 / no-opt-qp-pps / no-opt-ref-list-length-pps / no-multi-pass-opt-rps / scenecut-bias=0.05 / no-opt-cu-delta-qp / no-aq-motion / no-hdr / no-hdr-opt / no-dhdr10-opt / analysis-save=(null) / analysis-load=(null) / analysis-reuse-level=5 / scale-factor=0 / refine-intra=0 / refine-inter=0 / refine-mv=0 / no-limit-sao / ctu-info=0 / no-lowpass-dct / refine-mv-type=0 / copy-pic=1
  33. Default                                  : Yes
  34. Forced                                   : No
  35. Color range                              : Limited
  36. Color primaries                          : BT.709
  37. Audio #1
  38. ID                                       : 2
  39. Format                                   : AC-3
  40. Format/Info                              : Audio Coding 3
  41. Commercial name                          : Dolby Digital
  42. Codec ID                                 : A_AC3
  43. Duration                                 : 1 h 38 min
  44. Bit rate mode                            : Constant
  45. Bit rate                                 : 640 kb/s
  46. Channel(s)                               : 6 channels
  47. Channel layout                           : L R C LFE Ls Rs
  48. Sampling rate                            : 48.0 kHz
  49. Frame rate                               : 31.250 FPS (1536 SPF)
  50. Compression mode                         : Lossy
  51. Stream size                              : 453 MiB (7%)
  52. Title                                    : 粤语音轨
  53. Language                                 : Chinese
  54. Service kind                             : Complete Main
  55. Default                                  : Yes
  56. Forced                                   : No
  57. Audio #2
  58. ID                                       : 3
  59. Format                                   : AC-3
  60. Format/Info                              : Audio Coding 3
  61. Commercial name                          : Dolby Digital
  62. Codec ID                                 : A_AC3
  63. Duration                                 : 1 h 38 min
  64. Bit rate mode                            : Constant
  65. Bit rate                                 : 640 kb/s
  66. Channel(s)                               : 6 channels
  67. Channel layout                           : L R C LFE Ls Rs
  68. Sampling rate                            : 48.0 kHz
  69. Frame rate                               : 31.250 FPS (1536 SPF)
  70. Compression mode                         : Lossy
  71. Stream size                              : 453 MiB (7%)
  72. Title                                    : 国语音轨
  73. Language                                 : Chinese
  74. Service kind                             : Complete Main
  75. Default                                  : No
  76. Forced                                   : No
  77. Text #1
  78. ID                                       : 4
  79. Format                                   : PGS
  80. Muxing mode                              : zlib
  81. Codec ID                                 : S_HDMV/PGS
  82. Codec ID/Info                            : Picture based subtitle format used on BDs/HD-DVDs
  83. Duration                                 : 1 h 35 min
  84. Bit rate                                 : 22.3 kb/s
  85. Count of elements                        : 2142
  86. Stream size                              : 15.1 MiB (0%)
  87. Title                                    : 原盘繁体
  88. Language                                 : Chinese
  89. Default                                  : Yes
  90. Forced                                   : No
  91. Text #2
  92. ID                                       : 5
  93. Format                                   : PGS
  94. Muxing mode                              : zlib
  95. Codec ID                                 : S_HDMV/PGS
  96. Codec ID/Info                            : Picture based subtitle format used on BDs/HD-DVDs
  97. Duration                                 : 1 h 35 min
  98. Bit rate                                 : 18.6 kb/s
  99. Count of elements                        : 2142
  100. Stream size                              : 12.7 MiB (0%)
  101. Title                                    : English
  102. Language                                 : English
  103. Default                                  : No
  104. Forced                                   : No
  105. Menu
  106. 00:00:00.000                             : en:00:00:00.000
  107. 00:07:05.750                             : en:00:07:05.750
  108. 00:11:09.250                             : en:00:11:09.250
  109. 00:15:28.250                             : en:00:15:28.250
  110. 00:19:37.750                             : en:00:19:37.750
  111. 00:24:54.208                             : en:00:24:54.208
  112. 00:30:32.667                             : en:00:30:32.667
  113. 00:35:27.583                             : en:00:35:27.583
  114. 00:40:11.583                             : en:00:40:11.583
  115. 00:46:19.792                             : en:00:46:19.792
  116. 00:51:08.708                             : en:00:51:08.708
  117. 00:55:43.292                             : en:00:55:43.292
  118. 00:58:38.542                             : en:00:58:38.542
  119. 01:04:36.958                             : en:01:04:36.958
  120. 01:07:57.875                             : en:01:07:57.875
  121. 01:14:23.417                             : en:01:14:23.417
  122. 01:18:30.708                             : en:01:18:30.708
  123. 01:23:12.167                             : en:01:23:12.167
  124. 01:31:35.250                             : en:01:31:35.250
  125. 01:35:57.875                             : en:01:35:57.875





此处一般会放置磁力链或种子下载链接,不过此链接需要注册会员才能看到,点击“立即注册”
磁力链下载【下载链接仅对注册会员开放,登陆后可见】
BT9527电影天堂 1、BT9527电影天堂提供的BT文件均来源于互联网抓取,只供网友学习交流、技术提升使用。
2、我们遵守BitTorrent点对点协议原则,任何版权问题请联系原资源发布商,我们不处理任何版权纠纷,谢谢!如有争议请联系邮箱:BT9527#hotmail.com(#换成@)
3、如果您发现某页面或地址有错误,请联系站长邮箱BT9527#hotmail.com(#换成@),我们会尽快处理。您的热心是对BT9527电影天堂最大的支持。
4、本站建议去正规影院观看电影以支持电影行业发展。
最新回复 (0)

你可以在 登录 or 注册 后,对此帖发表评论!

返回