双龙会[国粤多音轨/繁体字幕].Twin.Dragons.1992.BluRay.1080p.x265.10bit.2Audio-MiniHD 5.17GB

版主小s 8天前 38

✔资源类型:暂未分类   ✔电影年份:更 早   ✔电影地区:香港   ✔电影分类:喜剧

◎译  名 双龙会 / Twin Dragons
◎片  名 雙龍會
◎年  代 1992
◎产  地 中国香港
◎类  别 喜剧 / 动作
◎语  言 粤语
◎上映日期 1992-01-15(中国香港)
◎IMDb链接 https://www.imdb.com/title/tt0105399/
◎豆瓣评分 7.6/10 (84523人评价)
◎豆瓣链接 https://movie.douban.com/subject/1296978/
◎片  长 104分钟
◎导  演 徐克 Hark Tsui (id:1007152)
       林岭东 Ringo Lam (id:1275076)
◎编  剧 黄炳耀 Barry Wong (id:1014964)
       徐克 Hark Tsui (id:1007152)
       张同祖 Tung Cho Cheung (id:1313660)
◎演  员 成龙 Jackie Chan (id:1054531)
       张曼玉 Maggie Cheung (id:1274231)
       利智 Nina Li Chi (id:1124360)
       泰迪·罗宾 Teddy Robin (id:1274243)
       黄霑 James Wong (id:1008091)
       张艾嘉 Sylvia Chang (id:1012646)
       姜大卫 David Chiang (id:1013705)
       张坚庭 Alfred Cheung (id:1016979)
       张婉婷 Mabel Cheung (id:1042534)
       陈友 Anthony Chan (id:1028948)
       刘家良 Kar-Leung Lau (id:1275361)
       麦灵芝 Angela Mak (id:1407439)
       童路 Lu Tung (id:1417484)
       韩冬青  (id:1470910)
       周树基 Kent Chow Shu-Kei (id:1411711)
       黎应就 Guy Lai (id:1345936)
       王晶 Jing Wong (id:1274331)
       吴思远 See-Yuen Ng (id:1293125)
       姜小亮  (id:1470457)
       曾志伟 Eric Tsang (id:1002862)
       徐克 Hark Tsui (id:1007152)
       刘伟强 Andrew Lau (id:1106979)
       陈可辛 Peter Chan (id:1274300)
       陈国新 Dennis Chan (id:1319568)
       廖静妮 Jingni Liao (id:1322549)
       罗卓瑶 Clara Law (id:1018767)
       冯克安 Hark-On Fung (id:1283563)
       李惠民 Raymond Lee (id:1319466)
       许鞍华 Ann Hui (id:1053570)
       胡大为 David Wu (id:1301332)
       陆剑明 Jamie Luk (id:1290446)
       刘家荣 Chia Yung Liu (id:1290162)
       楚原 Yuen Chor (id:1275401)
       程小东 Siu-Tung Ching (id:1280664)
       张之亮 Jacob Cheung (id:1078102)
       张同祖 Tung Cho Cheung (id:1313660)
       吴宇森 John Woo (id:1027853)
       叶荣祖 Wing-Cho Yip (id:1314277)
       陈嘉上 Gordon Chan (id:1274245)
       黄志强 Kirk Wong (id:1301193)
       唐基明 Terry Tong (id:1320780)
       方令正 Eddie Ling-Ching Fong (id:1283932)
       徐小明 Siu Ming Tsui (id:1299583)
       杨凡 Yonfan (id:1274607)
       钱永强 Andy Chin (id:1323176)
       董玮 Wai Tung (id:1299617)
       李志毅 Chi-ngai Lee (id:1275140)
       火星 Mars (id:1033056)
       高志森 Clifton Ko (id:1281025)
       王龙威 Lung Wei Wang (id:1012747)
       陈欣健 Philip Chan (id:1007245)
       卢冠廷 Lowell Lo (id:1290255)
       黄永恒 Wing-Hung Wong (id:1300411)
       刘伟强 Andrew Lau (id:1106979)
       雷楚雄 Bill Lui (id:1290436)
       林镇辉 Jan-Fai Lam (id:1442789)
       温兆权 Shao-Kuan Wen (id:1409756)
       刘嘉蔚 Catherine Lau (id:1341597)
       袁和平 Woo-ping Yuen (id:1275026)
       董玮 Wai Tung (id:1299617)
       成龙 Jackie Chan (id:1054531)
       李健生 Chris Lee (id:1328406)
       罗礼贤 Bruce Law (id:1289542)

◎简  介
  由于匪徒劫持,一对双胞兄弟刚出生即遭分离。弟弟玩命(成龙)被舞女捡到抚养长大,终日浪迹于社会底层,为帮朋友泡妞,他结识了歌女芭芭拉(张曼玉),因此得罪黑社会;哥哥马友(成龙)被一对有钱夫妇带去美国,接受了良好教育长为著名音乐家,回港开音乐会时,结识世伯家的女儿唐心(利智)。                                    
                                阴差阳错中,两人互换角色进入对方生活,由于大家分不清谁是马友谁又是玩命,笑话迭出,芭芭拉与唐心的心思也渐起变化。音乐会上,玩命胡指乱挥不想大获成功,而马友在黑帮威逼下,开车去救被黑帮抓做人质的玩命的好友泰山,随后,两兄弟开始连手共斗强敌。
  1. ##### MediaInfo ######
  2. General
  3. Unique ID                                : 65754667593832625554475109949276432526 (0x3177E3699BF7308734B1081176E8288E)
  4. Complete name                            : Twin.Dragons.1992.BluRay.1080p.x265.10bit.2Audio-MiniHD.mkv
  5. Format                                   : Matroska
  6. Format version                           : Version 4
  7. File size                                : 5.17 GiB
  8. Duration                                 : 1 h 44 min
  9. Overall bit rate                         : 7 072 kb/s
  10. Encoded date                             : UTC 2018-01-09 06:40:53
  11. Writing application                      : mkvmerge v19.0.0 ('Brave Captain') 64-bit
  12. Writing library                          : libebml v1.3.5 + libmatroska v1.4.8
  13. Video
  14. ID                                       : 1
  15. Format                                   : HEVC
  16. Format/Info                              : High Efficiency Video Coding
  17. Format profile                           : Main 10@L4@Main
  18. Codec ID                                 : V_MPEGH/ISO/HEVC
  19. Duration                                 : 1 h 44 min
  20. Bit rate                                 : 6 220 kb/s
  21. Width                                    : 1 920 pixels
  22. Height                                   : 812 pixels
  23. Display aspect ratio                     : 2.35:1
  24. Frame rate mode                          : Constant
  25. Frame rate                               : 23.976 (24000/1001/53354) FPS
  26. Color space                              : YUV
  27. Chroma subsampling                       : 4:2:0
  28. Bit depth                                : 10 bits
  29. Bits/(Pixel*Frame)                       : 0.166
  30. Stream size                              : 4.55 GiB (88%)
  31. Writing library                          : x265 2.6+26-b4edf9b44d23:[Windows][MSVC 1900][64 bit] 10bit+8bit
  32. Encoding settings                        : cpuid=533541173503 / frame-threads=2 / numa-pools=4 / wpp / no-pmode / no-pme / no-psnr / no-ssim / log-level=2 / input-csp=1 / input-res=1920x812 / interlace=0 / total-frames=150619 / level-idc=0 / high-tier=1 / uhd-bd=0 / ref=5 / no-allow-non-conformance / no-repeat-headers / annexb / no-aud / no-hrd / info / hash=0 / no-temporal-layers / no-open-gop / min-keyint=1 / keyint=360 / gop-lookahead=0 / bframes=8 / b-adapt=2 / b-pyramid / bframe-bias=0 / rc-lookahead=60 / lookahead-slices=4 / NTMzNTQ=uuDQuD2mJt9fsCf / scenecut=40 / radl=0 / no-intra-refresh / ctu=32 / min-cu-size=8 / no-rect / no-amp / max-tu-size=16 / tu-inter-depth=2 / tu-intra-depth=2 / limit-tu=4 / rdoq-level=1 / dynamic-rd=0.00 / ssim-rd / signhide / no-tskip / nr-intra=0 / nr-inter=0 / no-constrained-intra / no-strong-intra-smoothing / max-merge=3 / limit-refs=2 / limit-modes / me=3 / subme=5 / merange=25 / temporal-mvp / weightp / weightb / no-analyze-src-pics / deblock=-1:-1 / no-sao / no-sao-non-deblock / rd=4 / no-early-skip / rskip / no-fast-intra / no-tskip-fast / no-cu-lossless / b-intra / no-splitrd-skip / rdpenalty=1 / psy-rd=0.00 / psy-rdoq=3.00 / no-rd-refine / no-lossless / cbqpoffs=-2 / crqpoffs=-2 / rc=crf / crf=20.0 / qcomp=0.70 / qpstep=4 / stats-write=0 / stats-read=0 / vbv-maxrate=10800 / vbv-bufsize=12000 / vbv-init=0.9 / crf-max=0.0 / crf-min=0.0 / ipratio=1.40 / pbratio=1.30 / aq-mode=2 / aq-strength=0.80 / cutree / zone-count=0 / no-strict-cbr / qg-size=16 / no-rc-grain / qpmax=69 / qpmin=0 / no-const-vbv / sar=0 / overscan=0 / videoformat=5 / range=0 / colorprim=1 / transfer=2 / colormatrix=2 / chromaloc=0 / display-window=0 / max-cll=0,0 / min-luma=0 / max-luma=1023 / log2-max-poc-lsb=8 / vui-timing-info / vui-hrd-info / slices=1 / no-opt-qp-pps / no-opt-ref-list-length-pps / no-multi-pass-opt-rps / scenecut-bias=0.05 / no-opt-cu-delta-qp / no-aq-motion / no-hdr / no-hdr-opt / no-dhdr10-opt / analysis-save=(null) / analysis-load=(null) / analysis-reuse-level=5 / scale-factor=0 / refine-intra=0 / refine-inter=0 / refine-mv=0 / no-limit-sao / ctu-info=0 / no-lowpass-dct / refine-mv-type=0 / copy-pic=1
  33. Default                                  : Yes
  34. Forced                                   : No
  35. Color range                              : Limited
  36. Color primaries                          : BT.709
  37. Audio #1
  38. ID                                       : 2
  39. Format                                   : AC-3
  40. Format/Info                              : Audio Coding 3
  41. Commercial name                          : Dolby Digital
  42. Codec ID                                 : A_AC3
  43. Duration                                 : 1 h 44 min
  44. Bit rate mode                            : Constant
  45. Bit rate                                 : 640 kb/s
  46. Channel(s)                               : 6 channels
  47. Channel layout                           : L R C LFE Ls Rs
  48. Sampling rate                            : 48.0 kHz
  49. Frame rate                               : 31.250 FPS (1536 SPF)
  50. Compression mode                         : Lossy
  51. Stream size                              : 479 MiB (9%)
  52. Title                                    : 粤语音轨
  53. Language                                 : Chinese
  54. Service kind                             : Complete Main
  55. Default                                  : Yes
  56. Forced                                   : No
  57. Audio #2
  58. ID                                       : 3
  59. Format                                   : AC-3
  60. Format/Info                              : Audio Coding 3
  61. Commercial name                          : Dolby Digital
  62. Codec ID                                 : A_AC3
  63. Duration                                 : 1 h 44 min
  64. Bit rate mode                            : Constant
  65. Bit rate                                 : 192 kb/s
  66. Channel(s)                               : 2 channels
  67. Channel layout                           : L R
  68. Sampling rate                            : 48.0 kHz
  69. Frame rate                               : 31.250 FPS (1536 SPF)
  70. Compression mode                         : Lossy
  71. Stream size                              : 144 MiB (3%)
  72. Title                                    : 国语音轨
  73. Language                                 : Chinese
  74. Service kind                             : Complete Main
  75. Default                                  : No
  76. Forced                                   : No
  77. Text #1
  78. ID                                       : 4
  79. Format                                   : PGS
  80. Muxing mode                              : zlib
  81. Codec ID                                 : S_HDMV/PGS
  82. Codec ID/Info                            : Picture based subtitle format used on BDs/HD-DVDs
  83. Duration                                 : 1 h 42 min
  84. Bit rate                                 : 27.8 kb/s
  85. Count of elements                        : 3374
  86. Stream size                              : 20.3 MiB (0%)
  87. Title                                    : 粤语繁体
  88. Language                                 : Chinese
  89. Default                                  : Yes
  90. Forced                                   : No
  91. Text #2
  92. ID                                       : 5
  93. Format                                   : PGS
  94. Muxing mode                              : zlib
  95. Codec ID                                 : S_HDMV/PGS
  96. Codec ID/Info                            : Picture based subtitle format used on BDs/HD-DVDs
  97. Duration                                 : 1 h 43 min
  98. Bit rate                                 : 26.8 kb/s
  99. Count of elements                        : 2986
  100. Stream size                              : 19.8 MiB (0%)
  101. Title                                    : 国语繁体
  102. Language                                 : Chinese
  103. Default                                  : No
  104. Forced                                   : No





此处一般会放置磁力链或种子下载链接,不过此链接需要注册会员才能看到,点击“立即注册”
磁力链下载【下载链接仅对注册会员开放,登陆后可见】
BT9527电影天堂 1、BT9527电影天堂提供的BT文件均来源于互联网抓取,只供网友学习交流、技术提升使用。
2、我们遵守BitTorrent点对点协议原则,任何版权问题请联系原资源发布商,我们不处理任何版权纠纷,谢谢!如有争议请联系邮箱:BT9527#hotmail.com(#换成@)
3、如果您发现某页面或地址有错误,请联系站长邮箱BT9527#hotmail.com(#换成@),我们会尽快处理。您的热心是对BT9527电影天堂最大的支持。
4、本站建议去正规影院观看电影以支持电影行业发展。
最新回复 (0)

你可以在 登录 or 注册 后,对此帖发表评论!

返回
发新帖