半斤八两[国粤多音轨/简繁英字幕].The.Private.Eyes.1976.BluRay.1080p.x265.10bit.2Audio-MiniHD 4.74GB

版主小s 6天前 31

✔资源类型:暂未分类   ✔电影年份:更 早   ✔电影地区:香港   ✔电影分类:喜剧

◎译  名 半斤八两 / The Private Eyes
◎片  名 半斤八兩
◎年  代 1976
◎产  地 中国香港
◎类  别 喜剧
◎语  言 粤语
◎上映日期 1976-12-16(中国香港)
◎IMDb链接 https://www.imdb.com/title/tt0074179/
◎豆瓣评分 8.3/10 (23734人评价)
◎豆瓣链接 https://movie.douban.com/subject/1448758/
◎片  长 94分钟
◎导  演 许冠文 Michael Koon Man Hui (id:1050534)
◎编  剧 许冠文 Michael Koon Man Hui (id:1050534)
◎演  员 许冠文 Michael Koon Man Hui (id:1050534)
       许冠杰 Samuel Hui (id:1102963)
       许冠英 Ricky Hui (id:1023727)
       赵雅芝 Angie Chiu (id:1042036)
       吴耀汉 Richard Ng (id:1037408)
       卢慧芝 Wai Chi Lo (id:1330761)
       石坚 Kien Shih (id:1140701)
       朱牧 Mu Zhu (id:1003713)
       许冠武 Stanley Hui (id:1361826)
       陈任 Joe Chan (id:1361827)
       张俊英 Chun Ying Chang (id:1361828)
       黎少芳 Siu-Fong Lai (id:1361829)
       郑少萍 Siu Ping Cheng (id:1361830)
       梁舜燕 Lily Leung (id:1350721)
       陈剑云 Kim-Wan Chan (id:1361831)
       高雄 Hsiung Kao (id:1374068)
       解元 Yuan Chieh (id:1034024)
       萧钦芳 Chin-Fang Hsiao (id:1374072)
       曾楚霖 Choh-Lam Tsang (id:1341398)
       黄虾 Ha Huang (id:1374071)
       罗利期 Joe Junior (id:1319195)
       尹灵光 Leng-Kuang Yin (id:1368961)
       郭利民 Ray Cordeiro (id:1423730)
       黄志强 Wong Chi-Keung (id:1431487)
       余袁稳 Yu Yuen Yin (id:1364266)
       陈会毅 Billy Chan (id:1280414)
       陈立品 Maria Chan (id:1336073)
       余慕莲 Mo-Lin Yu (id:1345424)
       邹文怀 Raymond Chow (id:1016883)
       吴宇森 John Woo (id:1027853)
       许冠杰 Samuel Hui (id:1102963)
       张耀宗 Peter Cheung (id:1280650)
       洪金宝 Sammo Hung Kam-Bo (id:1055887)
       周少龙 Shao Lung Chou (id:1344862)

◎简  介
  万能私家侦探社是一家连同社长黄若思(许冠文)在内只有三名工作人员的小侦探社,由于生意不咸不淡,加上黄若思为人小气刻薄,员工河豚(许冠英)和积琪(赵雅芝),尤其前者没少遭罪。原在汽水厂上班的李国杰(许冠杰)因工作偷懒被老板解雇,一身好功夫的他来到万能求职,黄若思起初不肯雇用,随后见他的确有两把刷子,应了下来,薪水自然苛刻。                                       
                                    李国杰没来之前,黄若思与河豚搭档侦探的,无非一些风流、偷窃、欺诈事务,这些案件不是每一都能侦破,而侦破的过程常常充满尴尬,远称不上完美,但其时香港社会的百态却一览无遗。他来之后,三人的合作亦是如此。更要命的,是他们常被警探(吴耀汉)误视作不法分子。                                       
                                    几件不大不小的案子,尤其八十岁老翁的娇妻(卢慧芝)在外与人(吴耀汉)偷情一案办过,李国杰显现出比黄若思更强的工作能力,更得客户青睐。某日,黄若思与李国杰受委托来到某家先前被劫匪威胁、现有...
  1. ##### MediaInfo ######
  2. General
  3. Unique ID                                : 80269385322484627589077848820111538133 (0x3C63523F78F3D7D7E3F273BBBBE277D5)
  4. Complete name                            : The.Private.Eyes.1976.BluRay.1080p.x265.10bit.2Audio-MiniHD.mkv
  5. Format                                   : Matroska
  6. Format version                           : Version 4
  7. File size                                : 4.74 GiB
  8. Duration                                 : 1 h 36 min
  9. Overall bit rate                         : 7 051 kb/s
  10. Encoded date                             : UTC 2018-02-28 15:30:02
  11. Writing application                      : mkvmerge v20.0.0 ('I Am The Sun') 64-bit
  12. Writing library                          : libebml v1.3.5 + libmatroska v1.4.8
  13. Video
  14. ID                                       : 1
  15. Format                                   : HEVC
  16. Format/Info                              : High Efficiency Video Coding
  17. Format profile                           : Main 10@L4@Main
  18. Codec ID                                 : V_MPEGH/ISO/HEVC
  19. Duration                                 : 1 h 36 min
  20. Bit rate                                 : 5 631 kb/s
  21. Width                                    : 1 920 pixels
  22. Height                                   : 818 pixels
  23. Display aspect ratio                     : 2.35:1
  24. Frame rate mode                          : Constant
  25. Frame rate                               : 23.976 (24000/1001/53354) FPS
  26. Color space                              : YUV
  27. Chroma subsampling                       : 4:2:0
  28. Bit depth                                : 10 bits
  29. Bits/(Pixel*Frame)                       : 0.150
  30. Stream size                              : 3.78 GiB (80%)
  31. Writing library                          : x265 2.6+31-3712d13c09bf:[Windows][MSVC 1912][64 bit] 10bit
  32. Encoding settings                        : cpuid=533541173503 / frame-threads=3 / numa-pools=8 / wpp / no-pmode / no-pme / no-psnr / no-ssim / log-level=2 / csv / csv-log-level=0 / input-csp=1 / input-res=1920x818 / interlace=0 / total-frames=138348 / level-idc=0 / high-tier=1 / uhd-bd=0 / ref=5 / no-allow-non-conformance / no-repeat-headers / annexb / no-aud / no-hrd / info / hash=0 / no-temporal-layers / no-open-gop / min-keyint=1 / keyint=360 / gop-lookahead=0 / bframes=9 / b-adapt=2 / b-pyramid / bframe-bias=0 / rc-lookahead=60 / lookahead-slices=4 / NTMzNTQ=uuDQuD2mJt9fsCf / scenecut=40 / radl=0 / no-intra-refresh / ctu=32 / min-cu-size=8 / rect / no-amp / max-tu-size=16 / tu-inter-depth=2 / tu-intra-depth=2 / limit-tu=4 / rdoq-level=1 / dynamic-rd=0.00 / ssim-rd / signhide / no-tskip / nr-intra=0 / nr-inter=0 / no-constrained-intra / no-strong-intra-smoothing / max-merge=3 / limit-refs=2 / limit-modes / me=3 / subme=5 / merange=25 / temporal-mvp / weightp / weightb / no-analyze-src-pics / deblock=-1:-1 / no-sao / no-sao-non-deblock / rd=4 / no-early-skip / rskip / no-fast-intra / no-tskip-fast / no-cu-lossless / b-intra / no-splitrd-skip / rdpenalty=1 / psy-rd=0.00 / psy-rdoq=5.00 / no-rd-refine / no-lossless / cbqpoffs=-2 / crqpoffs=-2 / rc=crf / crf=20.0 / qcomp=0.70 / qpstep=4 / stats-write=0 / stats-read=0 / ipratio=1.40 / pbratio=1.30 / aq-mode=1 / aq-strength=0.80 / cutree / zone-count=0 / no-strict-cbr / qg-size=16 / no-rc-grain / qpmax=69 / qpmin=0 / no-const-vbv / sar=0 / overscan=0 / videoformat=5 / range=0 / colorprim=1 / transfer=2 / colormatrix=2 / chromaloc=0 / display-window=0 / max-cll=0,0 / min-luma=0 / max-luma=1023 / log2-max-poc-lsb=8 / vui-timing-info / vui-hrd-info / slices=1 / no-opt-qp-pps / no-opt-ref-list-length-pps / no-multi-pass-opt-rps / scenecut-bias=0.05 / no-opt-cu-delta-qp / no-aq-motion / no-hdr / no-hdr-opt / no-dhdr10-opt / analysis-reuse-level=5 / scale-factor=0 / refine-intra=0 / refine-inter=0 / refine-mv=0 / no-limit-sao / ctu-info=0 / no-lowpass-dct / refine-mv-type=0 / copy-pic=1
  33. Language                                 : Chinese
  34. Default                                  : Yes
  35. Forced                                   : No
  36. Color range                              : Limited
  37. Color primaries                          : BT.709
  38. Audio #1
  39. ID                                       : 2
  40. Format                                   : AC-3
  41. Format/Info                              : Audio Coding 3
  42. Commercial name                          : Dolby Digital
  43. Codec ID                                 : A_AC3
  44. Duration                                 : 1 h 36 min
  45. Bit rate mode                            : Constant
  46. Bit rate                                 : 640 kb/s
  47. Channel(s)                               : 6 channels
  48. Channel layout                           : L R C LFE Ls Rs
  49. Sampling rate                            : 48.0 kHz
  50. Frame rate                               : 31.250 FPS (1536 SPF)
  51. Compression mode                         : Lossy
  52. Stream size                              : 440 MiB (9%)
  53. Title                                    : 粤语
  54. Language                                 : Chinese
  55. Service kind                             : Complete Main
  56. Default                                  : Yes
  57. Forced                                   : No
  58. Audio #2
  59. ID                                       : 3
  60. Format                                   : AC-3
  61. Format/Info                              : Audio Coding 3
  62. Commercial name                          : Dolby Digital
  63. Codec ID                                 : A_AC3
  64. Duration                                 : 1 h 36 min
  65. Bit rate mode                            : Constant
  66. Bit rate                                 : 640 kb/s
  67. Channel(s)                               : 6 channels
  68. Channel layout                           : L R C LFE Ls Rs
  69. Sampling rate                            : 48.0 kHz
  70. Frame rate                               : 31.250 FPS (1536 SPF)
  71. Compression mode                         : Lossy
  72. Stream size                              : 440 MiB (9%)
  73. Title                                    : 国语
  74. Language                                 : Chinese
  75. Service kind                             : Complete Main
  76. Default                                  : No
  77. Forced                                   : No
  78. Text #1
  79. ID                                       : 4
  80. Format                                   : PGS
  81. Muxing mode                              : zlib
  82. Codec ID                                 : S_HDMV/PGS
  83. Codec ID/Info                            : Picture based subtitle format used on BDs/HD-DVDs
  84. Title                                    : 繁体
  85. Language                                 : Chinese
  86. Default                                  : Yes
  87. Forced                                   : No
  88. Text #2
  89. ID                                       : 5
  90. Format                                   : PGS
  91. Muxing mode                              : zlib
  92. Codec ID                                 : S_HDMV/PGS
  93. Codec ID/Info                            : Picture based subtitle format used on BDs/HD-DVDs
  94. Title                                    : 简体
  95. Language                                 : Chinese
  96. Default                                  : No
  97. Forced                                   : No
  98. Text #3
  99. ID                                       : 6
  100. Format                                   : PGS
  101. Muxing mode                              : zlib
  102. Codec ID                                 : S_HDMV/PGS
  103. Codec ID/Info                            : Picture based subtitle format used on BDs/HD-DVDs
  104. Title                                    : 英文
  105. Language                                 : English
  106. Default                                  : No
  107. Forced                                   : No
  108. Menu
  109. 00:00:00.000                             : en:Chapter 01
  110. 00:04:30.478                             : en:Chapter 02
  111. 00:09:37.451                             : en:Chapter 03
  112. 00:12:51.812                             : en:Chapter 04
  113. 00:19:35.924                             : en:Chapter 05
  114. 00:22:39.149                             : en:Chapter 06
  115. 00:28:57.652                             : en:Chapter 07
  116. 00:32:37.956                             : en:Chapter 08
  117. 00:39:38.292                             : en:Chapter 09
  118. 00:48:25.110                             : en:Chapter 10
  119. 00:54:12.624                             : en:Chapter 11
  120. 00:58:10.820                             : en:Chapter 12
  121. 01:02:46.846                             : en:Chapter 13
  122. 01:05:44.941                             : en:Chapter 14
  123. 01:10:09.914                             : en:Chapter 15
  124. 01:16:08.772                             : en:Chapter 16
  125. 01:20:42.087                             : en:Chapter 17
  126. 01:27:10.350                             : en:Chapter 18
  127. 01:30:10.238                             : en:Chapter 19
  128. 01:33:44.619                             : en:Chapter 20





此处一般会放置磁力链或种子下载链接,不过此链接需要注册会员才能看到,点击“立即注册”
磁力链下载【下载链接仅对注册会员开放,登陆后可见】
BT9527电影天堂 1、BT9527电影天堂提供的BT文件均来源于互联网抓取,只供网友学习交流、技术提升使用。
2、我们遵守BitTorrent点对点协议原则,任何版权问题请联系原资源发布商,我们不处理任何版权纠纷,谢谢!如有争议请联系邮箱:BT9527#hotmail.com(#换成@)
3、如果您发现某页面或地址有错误,请联系站长邮箱BT9527#hotmail.com(#换成@),我们会尽快处理。您的热心是对BT9527电影天堂最大的支持。
4、本站建议去正规影院观看电影以支持电影行业发展。
最新回复 (0)

你可以在 登录 or 注册 后,对此帖发表评论!

返回
发新帖