十万火急[国粤多音轨/繁英字幕].Lifeline.1997.BluRay.1080p.x265.10bit.2Audio-MiniHD 3.37GB

版主小s 8天前 32

✔资源类型:暂未分类   ✔电影年份:更 早   ✔电影地区:香港   ✔电影分类:剧情

◎译  名 十万火急 / 烈火雄心119(台) / Lifeline
◎片  名 十萬火急
◎年  代 1997
◎产  地 中国香港
◎类  别 剧情 / 动作 / 灾难
◎语  言 粤语
◎上映日期 1997-01-03
◎IMDb链接 https://www.imdb.com/title/tt0120115/
◎豆瓣评分 7.4/10 (10736人评价)
◎豆瓣链接 https://movie.douban.com/subject/1304045/
◎片  长 108 分钟
◎导  演 杜琪峰 Johnnie To (id:1160186)
◎编  剧 游乃海 Nai-Hoi Yau (id:1161310)
◎演  员 刘青云 Sean Lau (id:1007251)
       方中信 Alex Fong (id:1033102)
       李若彤 Carman Lee (id:1023476)
       刘松仁 Damian Lau (id:1028689)
       黄卓玲 Ruby Wong (id:1301203)
       黄浩然 Raymond Wong Ho-Yin (id:1051740)
       林雪 Suet Lam (id:1274279)
       元彬 Bun Yuen (id:1278657)
       陈启泰 Kenneth Chan (id:1274952)
       姚莹莹 Eileen Yeow (id:1275434)
       邓梓峰 Chi-Fung Tang (id:1320111)
       方逸华 Mona Fong (id:1283933)
       黄英华 Ying-Wah Wong (id:1301204)
       郑兆强 Siu-keung Cheng (id:1280597)
       黄永明 Wing-ming Wong (id:1301209)
       黎沃 Lai Yu (id:1411067)
       游达志 Tat-Chi Yau (id:1274367)
       陈伟雄 Phat Chan (id:1275153)
       元彬 Bun Yuen (id:1278657)

◎简  介
  消防队长云(刘青云饰)是个刻己尽责的救火队员,每当意外发生,他都要和队员赶到火场。新调来的上司(方中信饰)决心以严谨纪律重整阵容,他的苛刻要求招致一众消防员的不满。但在生活上,他们各自并不如意。上司重遇前妻,形同陌路。一心为事业的女见习队长(黄卓菱饰)也与丈夫貌合神离。云在一次现场抢救过程中,搭救了Carmen(李若彤饰)。                                    
                                面对那场突然爆发的灾难性的五级大火,对消防员自身构成危险,所有人必须离开火场,火场內藏有大量危险品及引致大爆炸,並且释放出大量有毒气体,而火场內仍有生还者待救。身处生死边缘的消防队员们,仍决定奋不顾身继续救人,最后他们能否成功?

◎获奖情况 (共8项)
  第34届台北金马影展 (1997)
  金马奖 最佳动作设计(提名)
   └──元彬 (id:1278657)

  第17届香港电影金像奖 (1998)
  最佳电影(提名)
   └──方逸华 (id:1283933)
  最佳导演(提名)
   └──杜琪峰 (id:1160186)
  最佳新演员(提名)
   └──黄卓玲 (id:1301203)
  最佳剪接
   └──黄永明 (id:1301209)
  最佳动作设计(提名)
   └──元彬 (id:1278657)
  最佳音响效果

  第4届中国长春电影节 (1998)
  金鹿奖 优秀华语故事片

  1. ##### MediaInfo ######
  2. General
  3. Unique ID                                : 252612675376807210870579549031012085000 (0xBE0B6E7C49EE8511A74A4E7B6F7DAD08)
  4. Complete name                            : Lifeline.1997.BluRay.1080p.x265.10bit.2Audio-MiniHD.mkv
  5. Format                                   : Matroska
  6. Format version                           : Version 4
  7. File size                                : 3.36 GiB
  8. Duration                                 : 1 h 48 min
  9. Overall bit rate                         : 4 437 kb/s
  10. Encoded date                             : UTC 2018-02-14 14:16:13
  11. Writing application                      : mkvmerge v20.0.0 ('I Am The Sun') 64-bit
  12. Writing library                          : libebml v1.3.5 + libmatroska v1.4.8
  13. Video
  14. ID                                       : 1
  15. Format                                   : HEVC
  16. Format/Info                              : High Efficiency Video Coding
  17. Format profile                           : Main 10@L4@Main
  18. Codec ID                                 : V_MPEGH/ISO/HEVC
  19. Duration                                 : 1 h 48 min
  20. Bit rate                                 : 3 452 kb/s
  21. Width                                    : 1 920 pixels
  22. Height                                   : 1 032 pixels
  23. Display aspect ratio                     : 1.85:1
  24. Frame rate mode                          : Constant
  25. Frame rate                               : 24.000 FPS
  26. Color space                              : YUV
  27. Chroma subsampling                       : 4:2:0
  28. Bit depth                                : 10 bits
  29. Bits/(Pixel*Frame)                       : 0.073
  30. Stream size                              : 2.62 GiB (78%)
  31. Writing library                          : x265 2.6+31-3712d13c09bf:[Windows][MSVC 1912][64 bit] 10bit
  32. Encoding settings                        : cpuid=533541173503 / frame-threads=3 / numa-pools=8 / wpp / no-pmode / no-pme / no-psnr / no-ssim / log-level=2 / csv / csv-log-level=0 / input-csp=1 / input-res=1920x1032 / interlace=0 / total-frames=156348 / level-idc=0 / high-tier=1 / uhd-bd=0 / ref=5 / no-allow-non-conformance / no-repeat-headers / annexb / no-aud / no-hrd / info / hash=0 / no-temporal-layers / no-open-gop / min-keyint=1 / keyint=360 / gop-lookahead=0 / bframes=9 / b-adapt=2 / b-pyramid / bframe-bias=0 / rc-lookahead=60 / lookahead-slices=4 / NTMzNTQ=uuDQuD2mJt9fsCf / scenecut=40 / radl=0 / no-intra-refresh / ctu=32 / min-cu-size=8 / rect / no-amp / max-tu-size=16 / tu-inter-depth=2 / tu-intra-depth=2 / limit-tu=4 / rdoq-level=1 / dynamic-rd=0.00 / ssim-rd / signhide / no-tskip / nr-intra=0 / nr-inter=0 / no-constrained-intra / no-strong-intra-smoothing / max-merge=3 / limit-refs=2 / limit-modes / me=3 / subme=5 / merange=25 / temporal-mvp / weightp / weightb / no-analyze-src-pics / deblock=-1:-1 / no-sao / no-sao-non-deblock / rd=4 / no-early-skip / rskip / no-fast-intra / no-tskip-fast / no-cu-lossless / b-intra / no-splitrd-skip / rdpenalty=1 / psy-rd=0.00 / psy-rdoq=5.00 / no-rd-refine / no-lossless / cbqpoffs=-2 / crqpoffs=-2 / rc=crf / crf=19.0 / qcomp=0.70 / qpstep=4 / stats-write=0 / stats-read=0 / ipratio=1.40 / pbratio=1.30 / aq-mode=2 / aq-strength=0.80 / cutree / zone-count=0 / no-strict-cbr / qg-size=16 / no-rc-grain / qpmax=69 / qpmin=0 / no-const-vbv / sar=0 / overscan=0 / videoformat=5 / range=0 / colorprim=1 / transfer=2 / colormatrix=2 / chromaloc=0 / display-window=0 / max-cll=0,0 / min-luma=0 / max-luma=1023 / log2-max-poc-lsb=8 / vui-timing-info / vui-hrd-info / slices=1 / no-opt-qp-pps / no-opt-ref-list-length-pps / no-multi-pass-opt-rps / scenecut-bias=0.05 / no-opt-cu-delta-qp / no-aq-motion / no-hdr / no-hdr-opt / no-dhdr10-opt / analysis-reuse-level=5 / scale-factor=0 / refine-intra=0 / refine-inter=0 / refine-mv=0 / no-limit-sao / ctu-info=0 / no-lowpass-dct / refine-mv-type=0 / copy-pic=1
  33. Language                                 : Chinese
  34. Default                                  : Yes
  35. Forced                                   : No
  36. Color range                              : Limited
  37. Color primaries                          : BT.709
  38. Audio #1
  39. ID                                       : 2
  40. Format                                   : AC-3
  41. Format/Info                              : Audio Coding 3
  42. Commercial name                          : Dolby Digital
  43. Codec ID                                 : A_AC3
  44. Duration                                 : 1 h 48 min
  45. Bit rate mode                            : Constant
  46. Bit rate                                 : 448 kb/s
  47. Channel(s)                               : 2 channels
  48. Channel layout                           : L R
  49. Sampling rate                            : 48.0 kHz
  50. Frame rate                               : 31.250 FPS (1536 SPF)
  51. Compression mode                         : Lossy
  52. Stream size                              : 348 MiB (10%)
  53. Title                                    : 粤语
  54. Language                                 : Chinese
  55. Service kind                             : Complete Main
  56. Default                                  : Yes
  57. Forced                                   : No
  58. Audio #2
  59. ID                                       : 3
  60. Format                                   : AC-3
  61. Format/Info                              : Audio Coding 3
  62. Commercial name                          : Dolby Digital
  63. Codec ID                                 : A_AC3
  64. Duration                                 : 1 h 48 min
  65. Bit rate mode                            : Constant
  66. Bit rate                                 : 448 kb/s
  67. Channel(s)                               : 2 channels
  68. Channel layout                           : L R
  69. Sampling rate                            : 48.0 kHz
  70. Frame rate                               : 31.250 FPS (1536 SPF)
  71. Compression mode                         : Lossy
  72. Stream size                              : 348 MiB (10%)
  73. Title                                    : 国语
  74. Language                                 : Chinese
  75. Service kind                             : Complete Main
  76. Default                                  : No
  77. Forced                                   : No
  78. Text #1
  79. ID                                       : 4
  80. Format                                   : PGS
  81. Muxing mode                              : zlib
  82. Codec ID                                 : S_HDMV/PGS
  83. Codec ID/Info                            : Picture based subtitle format used on BDs/HD-DVDs
  84. Title                                    : 繁体
  85. Language                                 : Chinese
  86. Default                                  : Yes
  87. Forced                                   : No
  88. Text #2
  89. ID                                       : 5
  90. Format                                   : PGS
  91. Muxing mode                              : zlib
  92. Codec ID                                 : S_HDMV/PGS
  93. Codec ID/Info                            : Picture based subtitle format used on BDs/HD-DVDs
  94. Title                                    : 英文
  95. Language                                 : English
  96. Default                                  : No
  97. Forced                                   : No
  98. Menu
  99. 00:00:00.000                             : en:Chapter 01
  100. 00:08:13.333                             : en:Chapter 02
  101. 00:14:52.458                             : en:Chapter 03
  102. 00:25:49.125                             : en:Chapter 04
  103. 00:35:38.250                             : en:Chapter 05
  104. 00:44:33.416                             : en:Chapter 06
  105. 00:55:38.750                             : en:Chapter 07
  106. 01:04:04.416                             : en:Chapter 08
  107. 01:13:41.625                             : en:Chapter 09
  108. 01:22:44.000                             : en:Chapter 10
  109. 01:32:18.875                             : en:Chapter 11
  110. 01:38:32.458                             : en:Chapter 12





此处一般会放置磁力链或种子下载链接,不过此链接需要注册会员才能看到,点击“立即注册”
磁力链下载【下载链接仅对注册会员开放,登陆后可见】
BT9527电影天堂 1、BT9527电影天堂提供的BT文件均来源于互联网抓取,只供网友学习交流、技术提升使用。
2、我们遵守BitTorrent点对点协议原则,任何版权问题请联系原资源发布商,我们不处理任何版权纠纷,谢谢!如有争议请联系邮箱:BT9527#hotmail.com(#换成@)
3、如果您发现某页面或地址有错误,请联系站长邮箱BT9527#hotmail.com(#换成@),我们会尽快处理。您的热心是对BT9527电影天堂最大的支持。
4、本站建议去正规影院观看电影以支持电影行业发展。
最新回复 (0)

你可以在 登录 or 注册 后,对此帖发表评论!

返回
发新帖