冬冬的假期[国语音轨/简英字幕].A.Summer.at.Grandpas.1984.BluRay.1080p.x265.10bit-MiniHD 6.27GB

版主小s 3月前 152

✔资源类型:暂未分类   ✔电影年份:更 早   ✔电影地区:台湾   ✔电影分类:剧情

◎译  名 冬冬的假期 / A Summer At Grandpa's
◎年  代 1984
◎产  地 中国台湾
◎类  别 剧情 / 儿童
◎语  言 汉语普通话 / 客家话 / 上海话
◎上映日期 1984
◎IMDb链接 https://www.imdb.com/title/tt0087164/
◎豆瓣评分 8.7/10 (22653人评价)
◎豆瓣链接 https://movie.douban.com/subject/1299103/
◎片  长 98分钟
◎导  演 侯孝贤 Hsiao-hsien Hou (id:1093843)
◎编  剧 朱天文 Tien-wen Chu  (id:1274364)
       侯孝贤 Hsiao-hsien Hou (id:1093843)
◎演  员 梅芳 Fang Mei (id:1324911)
       古军 Chun Ku (id:1345011)
       王启光 Chi-Kuang Wang (id:1349720)
       颜正国 Ching-kuo Yan (id:1315771)
       陈博正 Bor Jing Chan (id:1316066)
       杨丽音 Li-Yin Yang (id:1318089)
       林秀玲 Hsiu-Ling Lin (id:1317933)
       李淑桢 Ann Lee (id:1321857)
       杨德昌 Edward Yang (id:1053585)
       丁乃竺 Nai-chu Ting (id:1325211)
       江青霞 Ching-hsia Chiang (id:1348012)
       张华坤 Hwa-Kun Chang (id:1398858)
       杜笃之 Du-Che Tu (id:1275159)
       杨德昌 Edward Yang (id:1053585)
       陈坤厚 Kun Hao Chen (id:1078356)
       廖庆松 Ching-Song Liao (id:1312523)

◎简  介
  因为妈妈生病在床,台北某所小学毕业生冬冬(王启光)携带妹妹婷婷(李淑桢)来到乡下外公家度暑假,在和当地小朋友共度快乐时光的同时,也逐渐见识到成人世界的各色脸孔。                                    
                                舅舅(陈博正)房间里藏有通缉犯人,同一个女孩谈着惹外公火冒三丈的恋爱;人见人怕人躲的疯女人(杨丽音)和婷婷交上朋友,并救了婷婷一条命;为救治疯女人,外公没赶去台北看望自己要病危的女儿……冬冬虽是懂事的孩子,但上述种种,要他好好消化掉却也费力。但当妈妈和疯女人均转危为安,冬冬在听完外公的一席话后,明白了许多事情不能只看表面。

◎获奖情况 (共2项)
  第21届台北金马影展 (1984)
  金马奖 最佳改编剧本(提名)
   └──朱天文 (id:1274364)
  金马奖  最佳童星(提名)
   └──王启光 (id:1349720)

  1. ##### MediaInfo ######
  2. General
  3. Unique ID                                : 109586029289983956040986478419384968726 (0x527180643E8EF6118473E3573A27A616)
  4. Complete name                            : A.Summer.at.Grandpas.1984.BluRay.1080p.x265.10bit-MiniHD.mkv
  5. Format                                   : Matroska
  6. Format version                           : Version 4
  7. File size                                : 6.27 GiB
  8. Duration                                 : 1 h 38 min
  9. Overall bit rate                         : 9 158 kb/s
  10. Encoded date                             : UTC 2018-02-03 17:41:38
  11. Writing application                      : mkvmerge v20.0.0 ('I Am The Sun') 64-bit
  12. Writing library                          : libebml v1.3.5 + libmatroska v1.4.8
  13. Video
  14. ID                                       : 1
  15. Format                                   : HEVC
  16. Format/Info                              : High Efficiency Video Coding
  17. Format profile                           : Main 10@L4@Main
  18. Codec ID                                 : V_MPEGH/ISO/HEVC
  19. Duration                                 : 1 h 38 min
  20. Bit rate                                 : 8 486 kb/s
  21. Width                                    : 1 920 pixels
  22. Height                                   : 1 038 pixels
  23. Display aspect ratio                     : 1.85:1
  24. Frame rate mode                          : Constant
  25. Frame rate                               : 23.976 (24000/1001/53354) FPS
  26. Color space                              : YUV
  27. Chroma subsampling                       : 4:2:0
  28. Bit depth                                : 10 bits
  29. Bits/(Pixel*Frame)                       : 0.178
  30. Stream size                              : 5.81 GiB (93%)
  31. Writing library                          : x265 2.6+31-3712d13c09bf:[Windows][MSVC 1912][64 bit] 10bit
  32. Encoding settings                        : cpuid=533541173503 / frame-threads=3 / numa-pools=8 / wpp / no-pmode / no-pme / no-psnr / no-ssim / log-level=2 / csv / csv-log-level=0 / input-csp=1 / input-res=1920x1038 / interlace=0 / total-frames=141072 / level-idc=0 / high-tier=1 / uhd-bd=0 / ref=5 / no-allow-non-conformance / no-repeat-headers / annexb / no-aud / no-hrd / info / hash=0 / no-temporal-layers / no-open-gop / min-keyint=1 / keyint=360 / gop-lookahead=0 / bframes=9 / b-adapt=2 / b-pyramid / bframe-bias=0 / rc-lookahead=60 / lookahead-slices=4 / NTMzNTQ=uuDQuD2mJt9fsCf / scenecut=40 / radl=0 / no-intra-refresh / ctu=32 / min-cu-size=8 / rect / no-amp / max-tu-size=16 / tu-inter-depth=2 / tu-intra-depth=2 / limit-tu=4 / rdoq-level=1 / dynamic-rd=0.00 / ssim-rd / signhide / no-tskip / nr-intra=0 / nr-inter=0 / no-constrained-intra / no-strong-intra-smoothing / max-merge=3 / limit-refs=2 / limit-modes / me=3 / subme=5 / merange=25 / temporal-mvp / weightp / weightb / no-analyze-src-pics / deblock=-1:-1 / no-sao / no-sao-non-deblock / rd=4 / no-early-skip / rskip / no-fast-intra / no-tskip-fast / no-cu-lossless / b-intra / no-splitrd-skip / rdpenalty=1 / psy-rd=0.00 / psy-rdoq=5.00 / no-rd-refine / no-lossless / cbqpoffs=-2 / crqpoffs=-2 / rc=crf / crf=20.0 / qcomp=0.70 / qpstep=4 / stats-write=0 / stats-read=0 / ipratio=1.40 / pbratio=1.30 / aq-mode=2 / aq-strength=0.80 / cutree / zone-count=0 / no-strict-cbr / qg-size=16 / no-rc-grain / qpmax=69 / qpmin=0 / no-const-vbv / sar=0 / overscan=0 / videoformat=5 / range=0 / colorprim=1 / transfer=2 / colormatrix=2 / chromaloc=0 / display-window=0 / max-cll=0,0 / min-luma=0 / max-luma=1023 / log2-max-poc-lsb=8 / vui-timing-info / vui-hrd-info / slices=1 / no-opt-qp-pps / no-opt-ref-list-length-pps / no-multi-pass-opt-rps / scenecut-bias=0.05 / no-opt-cu-delta-qp / no-aq-motion / no-hdr / no-hdr-opt / no-dhdr10-opt / analysis-reuse-level=5 / scale-factor=0 / refine-intra=0 / refine-inter=0 / refine-mv=0 / no-limit-sao / ctu-info=0 / no-lowpass-dct / refine-mv-type=0 / copy-pic=1
  33. Language                                 : Chinese
  34. Default                                  : Yes
  35. Forced                                   : No
  36. Color range                              : Limited
  37. Color primaries                          : BT.709
  38. Audio
  39. ID                                       : 2
  40. Format                                   : AC-3
  41. Format/Info                              : Audio Coding 3
  42. Commercial name                          : Dolby Digital
  43. Codec ID                                 : A_AC3
  44. Duration                                 : 1 h 38 min
  45. Bit rate mode                            : Constant
  46. Bit rate                                 : 640 kb/s
  47. Channel(s)                               : 2 channels
  48. Channel layout                           : L R
  49. Sampling rate                            : 48.0 kHz
  50. Frame rate                               : 31.250 FPS (1536 SPF)
  51. Compression mode                         : Lossy
  52. Stream size                              : 449 MiB (7%)
  53. Language                                 : Chinese
  54. Service kind                             : Complete Main
  55. Default                                  : Yes
  56. Forced                                   : No
  57. Text #1
  58. ID                                       : 3
  59. Format                                   : PGS
  60. Muxing mode                              : zlib
  61. Codec ID                                 : S_HDMV/PGS
  62. Codec ID/Info                            : Picture based subtitle format used on BDs/HD-DVDs
  63. Duration                                 : 1 h 36 min
  64. Bit rate                                 : 29.3 kb/s
  65. Count of elements                        : 1530
  66. Stream size                              : 20.2 MiB (0%)
  67. Title                                    : 简英
  68. Language                                 : Chinese
  69. Default                                  : Yes
  70. Forced                                   : No
  71. Text #2
  72. ID                                       : 4
  73. Format                                   : PGS
  74. Muxing mode                              : zlib
  75. Codec ID                                 : S_HDMV/PGS
  76. Codec ID/Info                            : Picture based subtitle format used on BDs/HD-DVDs
  77. Duration                                 : 1 h 36 min
  78. Bit rate                                 : 14.0 kb/s
  79. Count of elements                        : 1530
  80. Stream size                              : 9.64 MiB (0%)
  81. Title                                    : 简体
  82. Language                                 : Chinese
  83. Default                                  : No
  84. Forced                                   : No
  85. Text #3
  86. ID                                       : 5
  87. Format                                   : PGS
  88. Muxing mode                              : zlib
  89. Codec ID                                 : S_HDMV/PGS
  90. Codec ID/Info                            : Picture based subtitle format used on BDs/HD-DVDs
  91. Duration                                 : 1 h 35 min
  92. Bit rate                                 : 15.9 kb/s
  93. Count of elements                        : 1528
  94. Stream size                              : 10.9 MiB (0%)
  95. Title                                    : 英文
  96. Language                                 : English
  97. Default                                  : No
  98. Forced                                   : No





此处一般会放置磁力链或种子下载链接,不过此链接需要注册会员才能看到,点击“立即注册”
磁力链下载【下载链接仅对注册会员开放,登陆后可见】
BT9527电影天堂 1、BT9527电影天堂提供的BT文件均来源于互联网抓取,只供网友学习交流、技术提升使用。
2、我们遵守BitTorrent点对点协议原则,任何版权问题请联系原资源发布商,我们不处理任何版权纠纷,谢谢!如有争议请联系邮箱:BT9527#hotmail.com(#换成@)
3、如果您发现某页面或地址有错误,请联系站长邮箱BT9527#hotmail.com(#换成@),我们会尽快处理。您的热心是对BT9527电影天堂最大的支持。
4、本站建议去正规影院观看电影以支持电影行业发展。
最新回复 (0)

你可以在 登录 or 注册 后,对此帖发表评论!

返回