冒险王[国粤多音轨/简繁英字幕].Dr.Wai.in.the.Scripture.With.No.Words.1996.BluRay.1080p.x265.10bit.2Audio-MiniHD 5.54GB

版主小s 3月前 150

✔资源类型:暂未分类   ✔电影年份:更 早   ✔电影地区:香港   ✔电影分类:动作

◎译  名 冒险王 / Dr. Wai in the Scripture With No Words
◎片  名 冒險王
◎年  代 1996
◎产  地 中国香港 / 中国大陆
◎类  别 动作
◎语  言 粤语 / 汉语普通话
◎上映日期 1996-03-14(中国香港) / 1996-02-10(韩国)
◎IMDb链接 https://www.imdb.com/title/tt0110463/
◎豆瓣评分 6.8/10 (56615人评价)
◎豆瓣链接 https://movie.douban.com/subject/1294114/
◎片  长 90分钟
◎导  演 程小东 Siu-Tung Ching (id:1280664)
◎编  剧 林伟伦 Wai-Lun Lam (id:1320058)
       司徒卓汉 Chuek-Hon Szeto (id:1314905)
◎演  员 李连杰 Jet Li (id:1025146)
       关之琳 Rosamund Kwan (id:1028064)
       金城武 Takeshi Kaneshiro (id:1027883)
       杨采妮 Charlie Yeung (id:1018373)
       罗家英 Kar-Ying Law (id:1108968)
       邹兆龙 Collin Chou (id:1022821)
       周比利 Billy Chow (id:1050501)
       江约诚 Johnnie Kong Yeuk-Sing (id:1320946)
       刘满棠 Moon-Tong Lau (id:1289492)
       麦子善 Marco Mak (id:1280638)
       林安儿 Angie Lam (id:1038152)
       付德林 Delin Fu (id:1330705)
       莫少奇 Jason Mok (id:1292297)
       刘兵 Bing Liu (id:1425805)
       冯君孟 William Fung (id:1284331)
       莫均杰 Kwan Kit Mok (id:1292292)
       吕荫培 Yinpei Lü (id:1451316)
       马彦量 Yin-leung Ma (id:1290576)
       马玉成 Yuk-Sing Ma (id:1290582)
       林峰 Feng Lin (id:1322676)
       程小东 Siu-Tung Ching (id:1280664)
       何添 Tim Ho (id:1408607)

◎简  介
  电视剧编剧周世杰(李连杰)被妻子莫尼卡(关之琳)闹离婚,郁闷之下开始编写剧集《冒险王》的剧本,想象中他成了民国时代的冒险王卫亦信,莫妮卡变作日本特务美加子,藉此宣泄郁闷。                                    
                                唐三藏当年西天取得、今下落不明的无字真经成为中国及日本政府争抢的目标,为免日本人捷足先登,中国政府邀请考古专家卫亦信及其徒弟包教晓(金城武)追查真经下落,得知线索在经盒表面,两人混入日本领事馆,结识身份神秘的美女美加子,后两人又追线索到某日报社,从编辑英叔(罗家英)口中知晓经盒下落,但消息亦被美加子得知。

◎获奖情况 (共2项)
  第33届台北金马影展 (1996)
  金马奖 最佳视觉效果
   └──马彦量 (id:1290576)

  第16届香港电影金像奖 (1997)
  最佳动作设计(提名)

  1. ##### MediaInfo ######
  2. General
  3. Unique ID                                : 103422526540389624674587885510008567107 (0x4DCE743E82A5407880D6FCD990F0F543)
  4. Complete name                            : Dr.Wai.in.the.Scripture.With.No.Words.1996.BluRay.1080p.x265.10bit.2Audio-MiniHD.mkv
  5. Format                                   : Matroska
  6. Format version                           : Version 4
  7. File size                                : 5.54 GiB
  8. Duration                                 : 1 h 30 min
  9. Overall bit rate                         : 8 761 kb/s
  10. Encoded date                             : UTC 2018-04-04 18:57:31
  11. Writing application                      : mkvmerge v20.0.0 ('I Am The Sun') 64-bit
  12. Writing library                          : libebml v1.3.5 + libmatroska v1.4.8
  13. Video
  14. ID                                       : 1
  15. Format                                   : HEVC
  16. Format/Info                              : High Efficiency Video Coding
  17. Format profile                           : Main 10@L4@Main
  18. Codec ID                                 : V_MPEGH/ISO/HEVC
  19. Duration                                 : 1 h 30 min
  20. Bit rate                                 : 7 307 kb/s
  21. Width                                    : 1 912 pixels
  22. Height                                   : 800 pixels
  23. Display aspect ratio                     : 2.40:1
  24. Frame rate mode                          : Constant
  25. Frame rate                               : 24.000 FPS
  26. Color space                              : YUV
  27. Chroma subsampling                       : 4:2:0
  28. Bit depth                                : 10 bits
  29. Bits/(Pixel*Frame)                       : 0.199
  30. Stream size                              : 4.62 GiB (83%)
  31. Writing library                          : x265 2.7+1-2aa737a99f51:[Windows][GCC 7.3.0][64 bit] 10bit
  32. Encoding settings                        : cpuid=533541173503 / frame-threads=3 / numa-pools=8 / wpp / no-pmode / no-pme / no-psnr / no-ssim / log-level=2 / csv / csv-log-level=0 / input-csp=1 / input-res=1912x800 / interlace=0 / total-frames=130394 / level-idc=0 / high-tier=1 / uhd-bd=0 / ref=5 / no-allow-non-conformance / no-repeat-headers / annexb / no-aud / no-hrd / info / hash=0 / no-temporal-layers / no-open-gop / min-keyint=1 / keyint=360 / gop-lookahead=0 / bframes=9 / b-adapt=2 / b-pyramid / bframe-bias=0 / rc-lookahead=60 / lookahead-slices=4 / NTMzNTQ=uuDQuD2mJt9fsCf / scenecut=40 / radl=0 / no-intra-refresh / ctu=32 / min-cu-size=8 / rect / no-amp / max-tu-size=16 / tu-inter-depth=2 / tu-intra-depth=2 / limit-tu=4 / rdoq-level=1 / dynamic-rd=0.00 / ssim-rd / signhide / no-tskip / nr-intra=0 / nr-inter=0 / no-constrained-intra / no-strong-intra-smoothing / max-merge=3 / limit-refs=2 / limit-modes / me=3 / subme=5 / merange=25 / temporal-mvp / weightp / weightb / no-analyze-src-pics / deblock=-1:-1 / no-sao / no-sao-non-deblock / rd=4 / no-early-skip / rskip / no-fast-intra / no-tskip-fast / no-cu-lossless / b-intra / no-splitrd-skip / rdpenalty=1 / psy-rd=0.00 / psy-rdoq=5.00 / no-rd-refine / no-lossless / cbqpoffs=-2 / crqpoffs=-2 / rc=crf / crf=19.0 / qcomp=0.70 / qpstep=4 / stats-write=0 / stats-read=0 / ipratio=1.40 / pbratio=1.30 / aq-mode=1 / aq-strength=0.80 / cutree / zone-count=0 / no-strict-cbr / qg-size=16 / no-rc-grain / qpmax=69 / qpmin=0 / no-const-vbv / sar=0 / overscan=0 / videoformat=5 / range=0 / colorprim=1 / transfer=2 / colormatrix=2 / chromaloc=0 / display-window=0 / max-cll=0,0 / min-luma=0 / max-luma=1023 / log2-max-poc-lsb=8 / vui-timing-info / vui-hrd-info / slices=1 / no-opt-qp-pps / no-opt-ref-list-length-pps / no-multi-pass-opt-rps / scenecut-bias=0.05 / no-opt-cu-delta-qp / no-aq-motion / no-hdr / no-hdr-opt / no-dhdr10-opt / analysis-reuse-level=5 / scale-factor=0 / refine-intra=0 / refine-inter=0 / refine-mv=0 / no-limit-sao / ctu-info=0 / no-lowpass-dct / refine-mv-type=0 / copy-pic=1
  33. Language                                 : Chinese
  34. Default                                  : Yes
  35. Forced                                   : No
  36. Color range                              : Limited
  37. Color primaries                          : BT.709
  38. Audio #1
  39. ID                                       : 2
  40. Format                                   : AC-3
  41. Format/Info                              : Audio Coding 3
  42. Commercial name                          : Dolby Digital
  43. Codec ID                                 : A_AC3
  44. Duration                                 : 1 h 30 min
  45. Bit rate mode                            : Constant
  46. Bit rate                                 : 640 kb/s
  47. Channel(s)                               : 6 channels
  48. Channel layout                           : L R C LFE Ls Rs
  49. Sampling rate                            : 48.0 kHz
  50. Frame rate                               : 31.250 FPS (1536 SPF)
  51. Compression mode                         : Lossy
  52. Stream size                              : 415 MiB (7%)
  53. Title                                    : 粤语
  54. Language                                 : Chinese
  55. Service kind                             : Complete Main
  56. Default                                  : Yes
  57. Forced                                   : No
  58. Audio #2
  59. ID                                       : 3
  60. Format                                   : AC-3
  61. Format/Info                              : Audio Coding 3
  62. Commercial name                          : Dolby Digital
  63. Codec ID                                 : A_AC3
  64. Duration                                 : 1 h 30 min
  65. Bit rate mode                            : Constant
  66. Bit rate                                 : 640 kb/s
  67. Channel(s)                               : 6 channels
  68. Channel layout                           : L R C LFE Ls Rs
  69. Sampling rate                            : 48.0 kHz
  70. Frame rate                               : 31.250 FPS (1536 SPF)
  71. Compression mode                         : Lossy
  72. Stream size                              : 415 MiB (7%)
  73. Title                                    : 国语
  74. Language                                 : Chinese
  75. Service kind                             : Complete Main
  76. Default                                  : No
  77. Forced                                   : No
  78. Text #1
  79. ID                                       : 4
  80. Format                                   : PGS
  81. Muxing mode                              : zlib
  82. Codec ID                                 : S_HDMV/PGS
  83. Codec ID/Info                            : Picture based subtitle format used on BDs/HD-DVDs
  84. Title                                    : 繁体
  85. Language                                 : Chinese
  86. Default                                  : Yes
  87. Forced                                   : No
  88. Text #2
  89. ID                                       : 5
  90. Format                                   : PGS
  91. Muxing mode                              : zlib
  92. Codec ID                                 : S_HDMV/PGS
  93. Codec ID/Info                            : Picture based subtitle format used on BDs/HD-DVDs
  94. Title                                    : 简体
  95. Language                                 : Chinese
  96. Default                                  : No
  97. Forced                                   : No
  98. Text #3
  99. ID                                       : 6
  100. Format                                   : PGS
  101. Muxing mode                              : zlib
  102. Codec ID                                 : S_HDMV/PGS
  103. Codec ID/Info                            : Picture based subtitle format used on BDs/HD-DVDs
  104. Title                                    : 英文
  105. Language                                 : English
  106. Default                                  : No
  107. Forced                                   : No
  108. Menu
  109. 00:00:00.000                             : en:Chapter 01
  110. 00:04:49.291                             : en:Chapter 02
  111. 00:09:35.583                             : en:Chapter 03
  112. 00:14:39.208                             : en:Chapter 04
  113. 00:18:18.000                             : en:Chapter 05
  114. 00:22:55.833                             : en:Chapter 06
  115. 00:27:21.375                             : en:Chapter 07
  116. 00:30:34.000                             : en:Chapter 08
  117. 00:35:29.625                             : en:Chapter 09
  118. 00:39:50.166                             : en:Chapter 10
  119. 00:44:01.583                             : en:Chapter 11
  120. 00:47:17.166                             : en:Chapter 12
  121. 00:51:15.708                             : en:Chapter 13
  122. 00:55:52.208                             : en:Chapter 14
  123. 01:01:03.791                             : en:Chapter 15
  124. 01:05:38.250                             : en:Chapter 16
  125. 01:10:22.625                             : en:Chapter 17
  126. 01:16:00.666                             : en:Chapter 18
  127. 01:20:20.500                             : en:Chapter 19
  128. 01:24:46.375                             : en:Chapter 20





此处一般会放置磁力链或种子下载链接,不过此链接需要注册会员才能看到,点击“立即注册”
磁力链下载【下载链接仅对注册会员开放,登陆后可见】
BT9527电影天堂 1、BT9527电影天堂提供的BT文件均来源于互联网抓取,只供网友学习交流、技术提升使用。
2、我们遵守BitTorrent点对点协议原则,任何版权问题请联系原资源发布商,我们不处理任何版权纠纷,谢谢!如有争议请联系邮箱:BT9527#hotmail.com(#换成@)
3、如果您发现某页面或地址有错误,请联系站长邮箱BT9527#hotmail.com(#换成@),我们会尽快处理。您的热心是对BT9527电影天堂最大的支持。
4、本站建议去正规影院观看电影以支持电影行业发展。
最新回复 (0)

你可以在 登录 or 注册 后,对此帖发表评论!

返回
发新帖