边疆[简繁英字幕].The.Edge.2010.1080p.BluRay.DTS.x265-10bit-ENTHD 8.23GB

版主小s 8天前 36

✔资源类型:暂未分类   ✔电影年份:2010   ✔电影地区:其他   ✔电影分类:剧情

◎标  题 边疆
◎译  名 边缘 / 雪国机械师 / Kray / The Edge
◎片  名 Край
◎年  代 2010
◎产  地 俄罗斯
◎类  别 剧情 / 冒险
◎语  言 德语 / 俄语 / 亚美尼亚语
◎上映日期 2010-09-23(俄罗斯)
◎IMDb评分 6.5/10 (3075人评价)
◎IMDb链接 https://www.imdb.com/title/tt1706414/
◎豆瓣评分 7.4/10 (1762人评价)
◎豆瓣链接 https://movie.douban.com/subject/5180253/
◎片  长 124分钟
◎导  演 阿列克谢·乌奇捷利 Aleksei Uchitel
◎演  员 弗拉基米尔·马什科夫 Vladimir Mashkov
       安约卡·斯秋儿 Anjorka Strechel
       尤利娅·别列希尔德 Юлия Пересильд       
       谢尔盖·加尔马什 Sergey Garmash
       亚历山大·巴希罗夫 Aleksandr Bashirov
       叶甫盖尼·特卡丘克 Evgeniy Tkachuk
       佛拉德斯·巴格多纳斯 Vladas Bagdonas
       安娜·乌克洛娃 Anna Ukolova
       维亚切斯拉夫·克里库诺夫 Vyacheslav Krikunov
       阿克塞尔·施里克 Axel Schrick

◎简  介
  影片的主人公是一名二战英雄,战后来到一座西部利亚小城当起了火车司机。真正给他们带来的极大的肉体和心灵的创伤,英雄们于是将火车视为膜拜的对象,疯狂的追求提升火车的速度。人和车似乎已经不分你我。英雄们就在这片西伯利亚丛林中,开始了一场不顾生命安全的火车竞速比赛。
  1. ##### MediaInfo ######
  2. General
  3. Unique ID                                : 300142791323998961899010156614366055004 (0xE1CD6620F3590587FDC9BA62B834CA5C)
  4. Complete name                            : The.Edge.2010.1080p.BluRay.DTS.x265-10bit-ENTHD.mkv
  5. Format                                   : Matroska
  6. Format version                           : Version 4
  7. File size                                : 8.23 GiB
  8. Duration                                 : 2 h 3 min
  9. Overall bit rate                         : 9 534 kb/s
  10. Movie name                               : The Edge 2010 1080p BluRay DTS x265-10bit-HDS
  11. Encoded date                             : UTC 2022-06-21 04:54:04
  12. Writing application                      : mkvmerge v67.0.0 ('Under Stars') 64-bit
  13. Writing library                          : libebml v1.4.2 + libmatroska v1.6.4
  14. Video
  15. ID                                       : 1
  16. Format                                   : HEVC
  17. Format/Info                              : High Efficiency Video Coding
  18. Format profile                           : Main 10@L5.1@High
  19. Codec ID                                 : V_MPEGH/ISO/HEVC
  20. Duration                                 : 2 h 3 min
  21. Bit rate                                 : 7 998 kb/s
  22. Width                                    : 1 920 pixels
  23. Height                                   : 1 080 pixels
  24. Display aspect ratio                     : 16:9
  25. Frame rate mode                          : Constant
  26. Frame rate                               : 24.000 FPS
  27. Color space                              : YUV
  28. Chroma subsampling                       : 4:2:0
  29. Bit depth                                : 10 bits
  30. Bits/(Pixel*Frame)                       : 0.161
  31. Stream size                              : 6.90 GiB (84%)
  32. Title                                    : cofunlau@HDSky
  33. Writing library                          : x265 - H.265/HEVC codec
  34. Default                                  : Yes
  35. Forced                                   : No
  36. Audio
  37. ID                                       : 2
  38. Format                                   : DTS
  39. Format/Info                              : Digital Theater Systems
  40. Codec ID                                 : A_DTS
  41. Duration                                 : 2 h 3 min
  42. Bit rate mode                            : Constant
  43. Bit rate                                 : 1 509 kb/s
  44. Channel(s)                               : 6 channels
  45. Channel layout                           : C L R Ls Rs LFE
  46. Sampling rate                            : 48.0 kHz
  47. Frame rate                               : 93.750 FPS (512 SPF)
  48. Bit depth                                : 24 bits
  49. Compression mode                         : Lossy
  50. Stream size                              : 1.30 GiB (16%)
  51. Title                                    : Russian
  52. Language                                 : Russian
  53. Default                                  : Yes
  54. Forced                                   : No
  55. Text #1
  56. ID                                       : 3
  57. Format                                   : PGS
  58. Muxing mode                              : zlib
  59. Codec ID                                 : S_HDMV/PGS
  60. Codec ID/Info                            : Picture based subtitle format used on BDs/HD-DVDs
  61. Duration                                 : 1 h 57 min
  62. Bit rate                                 : 16.5 kb/s
  63. Count of elements                        : 1713
  64. Stream size                              : 13.9 MiB (0%)
  65. Title                                    : CHS
  66. Language                                 : Chinese
  67. Default                                  : Yes
  68. Forced                                   : No
  69. Text #2
  70. ID                                       : 4
  71. Format                                   : PGS
  72. Muxing mode                              : zlib
  73. Codec ID                                 : S_HDMV/PGS
  74. Codec ID/Info                            : Picture based subtitle format used on BDs/HD-DVDs
  75. Duration                                 : 1 h 57 min
  76. Bit rate                                 : 17.2 kb/s
  77. Count of elements                        : 1713
  78. Stream size                              : 14.5 MiB (0%)
  79. Title                                    : CHT
  80. Language                                 : Chinese
  81. Default                                  : Yes
  82. Forced                                   : No
  83. Text #3
  84. ID                                       : 5
  85. Format                                   : PGS
  86. Muxing mode                              : zlib
  87. Codec ID                                 : S_HDMV/PGS
  88. Codec ID/Info                            : Picture based subtitle format used on BDs/HD-DVDs
  89. Duration                                 : 1 h 57 min
  90. Bit rate                                 : 11.9 kb/s
  91. Count of elements                        : 1616
  92. Stream size                              : 10.1 MiB (0%)
  93. Title                                    : ENG
  94. Language                                 : English
  95. Default                                  : Yes
  96. Forced                                   : No
  97. Menu
  98. 00:00:00.000                             : en:第 01 章





此处一般会放置磁力链或种子下载链接,不过此链接需要注册会员才能看到,点击“立即注册”
磁力链下载【下载链接仅对注册会员开放,登陆后可见】
BT9527电影天堂 1、BT9527电影天堂提供的BT文件均来源于互联网抓取,只供网友学习交流、技术提升使用。
2、我们遵守BitTorrent点对点协议原则,任何版权问题请联系原资源发布商,我们不处理任何版权纠纷,谢谢!如有争议请联系邮箱:BT9527#hotmail.com(#换成@)
3、如果您发现某页面或地址有错误,请联系站长邮箱BT9527#hotmail.com(#换成@),我们会尽快处理。您的热心是对BT9527电影天堂最大的支持。
4、本站建议去正规影院观看电影以支持电影行业发展。
最新回复 (0)

你可以在 登录 or 注册 后,对此帖发表评论!

返回
发新帖