警察[简繁英字幕].Police.2020.1080p.BluRay.DTS.x265-10bit-ENTHD 5.80GB

版主小s 6天前 39

✔资源类型:暂未分类   ✔电影年份:2020   ✔电影地区:其他   ✔电影分类:剧情

◎标  题 警察
◎译  名 Night Shift
◎片  名 Police
◎年  代 2020
◎产  地 法国 / 比利时
◎类  别 剧情
◎语  言 法语
◎上映日期 2020-02-23(柏林电影节) / 2020-09-02(法国)
◎IMDb评分 5.3/10 (1519人评价)
◎IMDb链接 https://www.imdb.com/title/tt9850344/
◎豆瓣评分 5.5/10 (301人评价)
◎豆瓣链接 https://movie.douban.com/subject/30475699/
◎片  长 99分钟
◎导  演 安妮·芳婷 Anne Fontaine
◎编  剧 安妮·芳婷 Anne Fontaine
◎演  员 维尔日妮·埃菲拉 Virginie Efira
       奥玛·希 Omar Sy
       格莱高利·嘉德波瓦 Grégory Gadebois
       佩曼·莫阿迪 Peyman Moadi
       艾莉莎·拉索斯基 Elisa Lasowski
       Cécile Rebboah Cécile Rebboah
       塞德里克·维埃拉 Cédric Vieira
       奥罗拉·布鲁坦 Aurore Broutin
       Keyvan Khojandi Keyvan Khojandi
       Yeelem Jappain Yeelem Jappain

◎简  介
  安妮·芳婷将执导影片[警察](Police,暂译),卡司包括维尔日妮·埃菲拉([20岁的差距])、奥玛·希([触不可及])、格莱高利·嘉德波瓦([你拯救了我的灵魂])、佩曼·莫阿迪([一次别离])。芳婷与克莱尔·巴雷(Claire Barré)操刀剧本。                                    
                                影片故事改编自雨果·鲍里斯小说,讲述三名警察被迫接受一项不同寻常的任务:将一名陌生人遣返原国。在开车前往飞机场的路上,其中一名警察意识到,如果让他回到自己的国家,他将会遭到死亡的威胁。于是这名警官劝说其他两名同事放他走。
  1. ##### MediaInfo ######
  2. General
  3. Unique ID                                : 22813353821513462308451470051216334463 (0x1129B12F25F475E5D9752283AF8A1E7F)
  4. Complete name                            : Police.2020.1080p.BluRay.DTS.x265-10bit-ENTHD.mkv
  5. Format                                   : Matroska
  6. Format version                           : Version 4
  7. File size                                : 5.80 GiB
  8. Duration                                 : 1 h 38 min
  9. Overall bit rate                         : 8 438 kb/s
  10. Movie name                               : Police 2020 1080p BluRay DTS x265-10bit-HDS
  11. Encoded date                             : UTC 2022-06-21 16:31:42
  12. Writing application                      : mkvmerge v67.0.0 ('Under Stars') 64-bit
  13. Writing library                          : libebml v1.4.2 + libmatroska v1.6.4
  14. Video
  15. ID                                       : 1
  16. Format                                   : HEVC
  17. Format/Info                              : High Efficiency Video Coding
  18. Format profile                           : Main 10@L5.1@High
  19. Codec ID                                 : V_MPEGH/ISO/HEVC
  20. Duration                                 : 1 h 38 min
  21. Bit rate                                 : 6 893 kb/s
  22. Width                                    : 1 920 pixels
  23. Height                                   : 800 pixels
  24. Display aspect ratio                     : 2.40:1
  25. Frame rate mode                          : Constant
  26. Frame rate                               : 24.000 FPS
  27. Color space                              : YUV
  28. Chroma subsampling                       : 4:2:0
  29. Bit depth                                : 10 bits
  30. Bits/(Pixel*Frame)                       : 0.187
  31. Stream size                              : 4.74 GiB (82%)
  32. Title                                    : cofunlau@HDSky
  33. Writing library                          : x265 - H.265/HEVC codec
  34. Default                                  : Yes
  35. Forced                                   : No
  36. Audio
  37. ID                                       : 2
  38. Format                                   : DTS
  39. Format/Info                              : Digital Theater Systems
  40. Codec ID                                 : A_DTS
  41. Duration                                 : 1 h 38 min
  42. Bit rate mode                            : Constant
  43. Bit rate                                 : 1 509 kb/s
  44. Channel(s)                               : 6 channels
  45. Channel layout                           : C L R Ls Rs LFE
  46. Sampling rate                            : 48.0 kHz
  47. Frame rate                               : 93.750 FPS (512 SPF)
  48. Bit depth                                : 24 bits
  49. Compression mode                         : Lossy
  50. Stream size                              : 1.04 GiB (18%)
  51. Title                                    : French
  52. Language                                 : French
  53. Default                                  : Yes
  54. Forced                                   : No
  55. Text #1
  56. ID                                       : 3
  57. Format                                   : PGS
  58. Muxing mode                              : zlib
  59. Codec ID                                 : S_HDMV/PGS
  60. Codec ID/Info                            : Picture based subtitle format used on BDs/HD-DVDs
  61. Duration                                 : 1 h 31 min
  62. Bit rate                                 : 23.1 kb/s
  63. Count of elements                        : 1646
  64. Stream size                              : 15.1 MiB (0%)
  65. Title                                    : CHS
  66. Language                                 : Chinese
  67. Default                                  : Yes
  68. Forced                                   : No
  69. Text #2
  70. ID                                       : 4
  71. Format                                   : PGS
  72. Muxing mode                              : zlib
  73. Codec ID                                 : S_HDMV/PGS
  74. Codec ID/Info                            : Picture based subtitle format used on BDs/HD-DVDs
  75. Duration                                 : 1 h 31 min
  76. Bit rate                                 : 23.6 kb/s
  77. Count of elements                        : 1646
  78. Stream size                              : 15.5 MiB (0%)
  79. Title                                    : CHT
  80. Language                                 : Chinese
  81. Default                                  : Yes
  82. Forced                                   : No
  83. Text #3
  84. ID                                       : 5
  85. Format                                   : PGS
  86. Muxing mode                              : zlib
  87. Codec ID                                 : S_HDMV/PGS
  88. Codec ID/Info                            : Picture based subtitle format used on BDs/HD-DVDs
  89. Duration                                 : 1 h 38 min
  90. Bit rate                                 : 22.7 kb/s
  91. Count of elements                        : 1946
  92. Stream size                              : 16.0 MiB (0%)
  93. Title                                    : ENG
  94. Language                                 : English
  95. Default                                  : Yes
  96. Forced                                   : No
  97. Menu
  98. 00:00:00.000                             : en:第 01 章
  99. 00:07:30.500                             : en:第 02 章
  100. 00:15:50.625                             : en:第 03 章
  101. 00:25:31.583                             : en:第 04 章
  102. 00:32:47.208                             : en:第 05 章
  103. 00:39:58.667                             : en:第 06 章
  104. 00:49:49.208                             : en:第 07 章
  105. 00:56:10.000                             : en:第 08 章
  106. 01:04:25.792                             : en:第 09 章
  107. 01:13:06.417                             : en:第 10 章
  108. 01:23:17.333                             : en:第 11 章
  109. 01:35:16.458                             : en:第 12 章





此处一般会放置磁力链或种子下载链接,不过此链接需要注册会员才能看到,点击“立即注册”
磁力链下载【下载链接仅对注册会员开放,登陆后可见】
BT9527电影天堂 1、BT9527电影天堂提供的BT文件均来源于互联网抓取,只供网友学习交流、技术提升使用。
2、我们遵守BitTorrent点对点协议原则,任何版权问题请联系原资源发布商,我们不处理任何版权纠纷,谢谢!如有争议请联系邮箱:BT9527#hotmail.com(#换成@)
3、如果您发现某页面或地址有错误,请联系站长邮箱BT9527#hotmail.com(#换成@),我们会尽快处理。您的热心是对BT9527电影天堂最大的支持。
4、本站建议去正规影院观看电影以支持电影行业发展。
最新回复 (0)

你可以在 登录 or 注册 后,对此帖发表评论!

返回
发新帖