大坏狐狸的故事[中文字幕].The.Big.Bad.Fox.and.Other.Tales.2017.1080p.x265.10bit-MiniHD 2.02GB

版主小s 8天前 25

✔资源类型:暂未分类   ✔电影年份:2017   ✔电影地区:其他   ✔电影分类:喜剧

◎译  名 大坏狐狸的故事 / 谁是大坏狐(台) / 坏蛋狐狸的故事(港) / 大坏狐狸的动物童话 / 大坏狐狸与其他童话 / 大坏狐狸与其他故事 / The Big Bad Fox and Other Tales...
◎片  名 Le Grand Méchant Renard et autres contes...
◎年  代 2017
◎产  地 法国 / 比利时 / 美国
◎类  别 喜剧 / 动画 / 冒险
◎语  言 法语 / 汉语普通话
◎上映日期 2018-03-16(中国大陆) / 2017-06-15(安锡动画电影节) / 2017-06-21(法国)
◎IMDb链接 https://www.imdb.com/title/tt5851904/
◎豆瓣评分 8.3/10 (85090人评价)
◎豆瓣链接 https://movie.douban.com/subject/27042405/
◎片  长 83分钟
◎导  演 本杰明·雷内 Benjamin Renner (id:1327904)
       帕特里克·英伯特 Patrick Imbert (id:1385323)
◎编  剧 本杰明·雷内 Benjamin Renner (id:1327904)
       让·勒尼奥 Jean Regnaud (id:1385355)
◎演  员 纪尧姆·达尔诺 Guillaume Darnault (id:1385549)
       席琳·荣特 Céline Ronté (id:1385552)
       达米安·维特卡 Damien Witecka (id:1385555)
       安托万·苏姆斯基 Antoine Schoumsky (id:1385554)
       卡梅尔·阿卜德萨多克 Kamel Abdessadok (id:1385547)
       克里斯多夫·勒莫因 Christophe Lemoine (id:1385550)
       纪尧姆·布谢德 Guillaume Bouchède (id:1385548)
       鲍里斯·雷林格 Boris Rehlinger (id:1385551)
       玛佳丽·罗森茨威格 Magali Rosenzweig (id:1385553)
       让·卢·霍维茨 Jean-Loup Horwitz (id:1350920)
       伊夫·阎 Yves Yan (id:1385556)
       亚历山大·莫洛尼 Alexander Molony (id:1438783)
       罗伯特·M·勒帕吉 Robert M. Lepage (id:1012916)

◎简  介
  电影分为三个可爱的小故事。                                    
                                一天,在风景怡人的农场里,小猪、兔子和鸭子见到了一个人类的小宝宝。负责护送小宝宝的鹈鹕拜托三只小动物将宝宝平安的送到他的人类母亲的手中,就这样,三只有些脱线的动物踏上了旅途。                                    
                                大坏狐狸一心想要将肥美的母鸡当做自己的盘中餐,无奈母鸡太过强大,狐狸根本不是她的对手。既然打不过母鸡,狐狸将“魔爪”伸向了母鸡正在孵的三枚鸡蛋,狐狸决定将这三只小鸡孵出来养大之后再把他们一一吃掉。然而,三只小鸡似乎将狐狸当成了他们的妈妈,亦以为他们自己也是狐狸。                                    
                                圣诞节就快要来了,农场里的动物们都欢天喜地的准备迎接圣诞老人的到来。然而,鸭子和兔子却在一场意外之中“杀死”的圣诞老人。

◎获奖情况 (共5项)
  第43届法国凯撒电影奖 (2018)
  最佳动画片

  第45届动画安妮奖 (2018)
  最佳独立动画长片(提名)
  最佳导演(提名)
  最佳动画角色(提名)

  第5届豆瓣电影年度榜单 (2018)
  评分最高的动画片(提名)

  1. ##### MediaInfo ######
  2. General
  3. Unique ID                                : 29693106887399981449382151501184065092 (0x1656AF32D92A0AA6AC69B860F6F95E44)
  4. Complete name                            : The.Big.Bad.Fox.and.Other.Tales.2017.1080p.x265.10bit-MiniHD.mkv
  5. Format                                   : Matroska
  6. Format version                           : Version 4
  7. File size                                : 2.01 GiB
  8. Duration                                 : 1 h 19 min
  9. Overall bit rate                         : 3 637 kb/s
  10. Encoded date                             : UTC 2018-05-20 06:29:26
  11. Writing application                      : mkvmerge v21.0.0 ('Tardigrades Will Inherit The Earth') 64-bit
  12. Writing library                          : libebml v1.3.5 + libmatroska v1.4.8
  13. Video
  14. ID                                       : 1
  15. Format                                   : HEVC
  16. Format/Info                              : High Efficiency Video Coding
  17. Format profile                           : Main 10@L4.1@High
  18. Codec ID                                 : V_MPEGH/ISO/HEVC
  19. Duration                                 : 1 h 19 min
  20. Bit rate                                 : 2 961 kb/s
  21. Width                                    : 1 920 pixels
  22. Height                                   : 1 080 pixels
  23. Display aspect ratio                     : 16:9
  24. Frame rate mode                          : Constant
  25. Frame rate                               : 25.000 FPS
  26. Color space                              : YUV
  27. Chroma subsampling                       : 4:2:0
  28. Bit depth                                : 10 bits
  29. Bits/(Pixel*Frame)                       : 0.057
  30. Stream size                              : 1.64 GiB (81%)
  31. Writing library                          : x265 2.7+3-9086c8a3e76d:[Windows][MSVC 1900][64 bit] 10bit
  32. Encoding settings                        : cpuid=533541173503 / frame-threads=2 / numa-pools=6 / wpp / no-pmode / no-pme / no-psnr / no-ssim / log-level=2 / csv / csv-log-level=0 / input-csp=1 / input-res=1920x1080 / interlace=0 / total-frames=0 / level-idc=0 / high-tier=1 / uhd-bd=0 / ref=5 / no-allow-non-conformance / no-repeat-headers / annexb / no-aud / no-hrd / info / hash=0 / no-temporal-layers / no-open-gop / min-keyint=1 / keyint=360 / gop-lookahead=0 / bframes=8 / b-adapt=2 / b-pyramid / bframe-bias=0 / rc-lookahead=60 / lookahead-slices=4 / NTMzNTQ=uuDQuD2mJt9fsCf / scenecut=40 / radl=0 / no-intra-refresh / ctu=32 / min-cu-size=8 / rect / no-amp / max-tu-size=16 / tu-inter-depth=2 / tu-intra-depth=2 / limit-tu=4 / rdoq-level=2 / dynamic-rd=0.00 / ssim-rd / signhide / no-tskip / nr-intra=0 / nr-inter=0 / no-constrained-intra / no-strong-intra-smoothing / max-merge=3 / limit-refs=2 / limit-modes / me=3 / subme=5 / merange=25 / temporal-mvp / weightp / weightb / no-analyze-src-pics / deblock=-1:-1 / no-sao / no-sao-non-deblock / rd=4 / no-early-skip / rskip / no-fast-intra / no-tskip-fast / no-cu-lossless / b-intra / no-splitrd-skip / rdpenalty=1 / psy-rd=0.00 / psy-rdoq=5.00 / no-rd-refine / no-lossless / cbqpoffs=-2 / crqpoffs=-2 / rc=crf / crf=18.0 / qcomp=0.70 / qpstep=4 / stats-write=0 / stats-read=0 / vbv-maxrate=40000 / vbv-bufsize=40000 / vbv-init=0.9 / crf-max=0.0 / crf-min=0.0 / ipratio=1.40 / pbratio=1.30 / aq-mode=1 / aq-strength=0.80 / cutree / zone-count=0 / no-strict-cbr / qg-size=16 / no-rc-grain / qpmax=69 / qpmin=0 / no-const-vbv / sar=0 / overscan=0 / videoformat=5 / range=0 / colorprim=1 / transfer=2 / colormatrix=2 / chromaloc=0 / display-window=0 / max-cll=0,0 / min-luma=0 / max-luma=1023 / log2-max-poc-lsb=8 / vui-timing-info / vui-hrd-info / slices=1 / no-opt-qp-pps / no-opt-ref-list-length-pps / no-multi-pass-opt-rps / scenecut-bias=0.05 / no-opt-cu-delta-qp / no-aq-motion / no-hdr / no-hdr-opt / no-dhdr10-opt / analysis-reuse-level=5 / scale-factor=0 / refine-intra=0 / refine-inter=0 / refine-mv=0 / no-limit-sao / ctu-info=0 / no-lowpass-dct / refine-mv-type=0 / copy-pic=1
  33. Default                                  : Yes
  34. Forced                                   : No
  35. Color range                              : Limited
  36. Color primaries                          : BT.709
  37. Audio
  38. ID                                       : 2
  39. Format                                   : AC-3
  40. Format/Info                              : Audio Coding 3
  41. Commercial name                          : Dolby Digital
  42. Codec ID                                 : A_AC3
  43. Duration                                 : 1 h 19 min
  44. Bit rate mode                            : Constant
  45. Bit rate                                 : 640 kb/s
  46. Channel(s)                               : 6 channels
  47. Channel layout                           : L R C LFE Ls Rs
  48. Sampling rate                            : 48.0 kHz
  49. Frame rate                               : 31.250 FPS (1536 SPF)
  50. Compression mode                         : Lossy
  51. Stream size                              : 363 MiB (18%)
  52. Language                                 : French
  53. Service kind                             : Complete Main
  54. Default                                  : Yes
  55. Forced                                   : No
  56. Text #1
  57. ID                                       : 3
  58. Format                                   : PGS
  59. Muxing mode                              : zlib
  60. Codec ID                                 : S_HDMV/PGS
  61. Codec ID/Info                            : Picture based subtitle format used on BDs/HD-DVDs
  62. Duration                                 : 1 h 15 min
  63. Bit rate                                 : 32.5 kb/s
  64. Count of elements                        : 1760
  65. Stream size                              : 17.5 MiB (1%)
  66. Language                                 : Chinese
  67. Default                                  : Yes
  68. Forced                                   : No
  69. Text #2
  70. ID                                       : 4
  71. Format                                   : PGS
  72. Muxing mode                              : zlib
  73. Codec ID                                 : S_HDMV/PGS
  74. Codec ID/Info                            : Picture based subtitle format used on BDs/HD-DVDs
  75. Duration                                 : 1 h 15 min
  76. Bit rate                                 : 33.9 kb/s
  77. Count of elements                        : 1760
  78. Stream size                              : 18.3 MiB (1%)
  79. Language                                 : Chinese
  80. Default                                  : No
  81. Forced                                   : No





此处一般会放置磁力链或种子下载链接,不过此链接需要注册会员才能看到,点击“立即注册”
磁力链下载【下载链接仅对注册会员开放,登陆后可见】
BT9527电影天堂 1、BT9527电影天堂提供的BT文件均来源于互联网抓取,只供网友学习交流、技术提升使用。
2、我们遵守BitTorrent点对点协议原则,任何版权问题请联系原资源发布商,我们不处理任何版权纠纷,谢谢!如有争议请联系邮箱:BT9527#hotmail.com(#换成@)
3、如果您发现某页面或地址有错误,请联系站长邮箱BT9527#hotmail.com(#换成@),我们会尽快处理。您的热心是对BT9527电影天堂最大的支持。
4、本站建议去正规影院观看电影以支持电影行业发展。
最新回复 (0)

你可以在 登录 or 注册 后,对此帖发表评论!

返回
发新帖