鬼夫[粤语音轨/简繁英字幕].Pee.Mak.Phrakanong.2013.BluRay.1080p.x265.10bit.2Audio-MiniHD 5.30GB

版主小s 12天前 65

✔资源类型:暂未分类   ✔电影年份:2013   ✔电影地区:泰国   ✔电影分类:喜剧

◎译  名 鬼夫 / 吓鬼阿嫂(港) / 凄厉人妻(台) / 鬼妻的丈夫 / 鬼丈夫 / Pee Mak Phra Khanong / Pee Mak Phrakanong
◎片  名 ?????????????
◎年  代 2013
◎产  地 泰国
◎类  别 喜剧 / 爱情 / 惊悚
◎语  言 泰语
◎上映日期 2013-03-28(泰国)
◎IMDb链接 https://www.imdb.com/title/tt2776344/
◎豆瓣评分 7.2/10 (24018人评价)
◎豆瓣链接 https://movie.douban.com/subject/21871405/
◎片  长 107分钟
◎导  演 班庄·比辛达拿刚 Banjong Pisanthanakun (id:1275003)
◎编  剧 辰塔维·塔纳西维 Chantavit Dhanasevi (id:1313296)
       侬特拉·孔旺 Nontra Kumwong (id:1313298)
       班庄·比辛达拿刚 Banjong Pisanthanakun (id:1275003)
◎演  员 马里奥·毛瑞尔 Mario Maurer (id:1041011)
       黛薇卡·霍内 Davika Hoorne (id:1316776)
       查特朋·纳塔彭 Chatphong Natthaphong (id:1332244)
       邦沙敦·宗威拉克 Pongsatorn Jongwilak (id:1321702)
       威瓦特·康格拉斯里 Wiwat Kongrasri (id:1332245)
       坎塔帕特·帕姆潘帕查拉苏克 Kantapat Permpoonpatcharasuk (id:1332247)
       肖恩·金达科特 Sean Jindachot (id:1332246)
         (id:1435017)
       Chane Auttarut Kongrasri Chane Auttarut Kongrasri (id:1338968)
       维苏特·普沃莱拉克斯 Visute Poolvoralaks (id:1294719)

◎简  介
  曼谷王朝战争期间,抱持着对妻子小奈以及即将出世孩子的思念,小小麦闯过血雨腥风的战场,总算和战友小特、老普、阿信以及阿艾熬到了退伍的那一天。历经千辛万苦,小小麦和伙伴们终于回到老家,然而村中清冷的景象却让众人颇为诧异。幸运的是他见到了妻子,夫妻久别重逢,执手相看泪眼竟无语凝噎。欢喜之余,小小麦更热情地留好哥们在家中居住。到了次日,其余四人赶集玩耍,谁知竟意外听说小奈早已难产的流言。那么他们前一日所看到的究竟是谁?当晚,阿艾来到小小麦的家中,不幸证实了听说的一切。他们该如何从女鬼手中救出自己的好兄弟呢?                                    
                                本片根据泰国著名民间传说改编。

◎获奖情况 (共13项)
  第23届泰国电影金天鹅奖 (2014)
  最佳影片(提名)
  最佳导演(提名)
   └──班庄·比辛达拿刚 (id:1275003)
  最佳女主角(提名)
   └──黛薇卡·霍内 (id:1316776)
  最佳男配角(提名)
  最佳剧本(提名)
  最佳摄影(提名)
  最佳剪辑(提名)
  最佳音效(提名)
  最佳配乐(提名)
  最佳艺术指导
  最佳服装设计(提名)
  最佳化妆(提名)
  最佳视觉效果(提名)

  1. ##### MediaInfo ######
  2. General
  3. Unique ID                                : 214187683964378025282565305222962424811 (0xA1230C242638849BBEFC4C3428212BEB)
  4. Complete name                            : Pee.Mak.Phrakanong.2013.BluRay.1080p.x265.10bit.2Audio-MiniHD.mkv
  5. Format                                   : Matroska
  6. Format version                           : Version 4
  7. File size                                : 5.29 GiB
  8. Duration                                 : 1 h 51 min
  9. Overall bit rate                         : 6 776 kb/s
  10. Encoded date                             : UTC 2018-01-31 03:14:40
  11. Writing application                      : mkvmerge v8.5.2 ('Crosses') 32bit
  12. Writing library                          : libebml v1.3.3 + libmatroska v1.4.4
  13. Video
  14. ID                                       : 1
  15. Format                                   : HEVC
  16. Format/Info                              : High Efficiency Video Coding
  17. Format profile                           : Main 10@L4@Main
  18. Codec ID                                 : V_MPEGH/ISO/HEVC
  19. Duration                                 : 1 h 51 min
  20. Bit rate                                 : 5 463 kb/s
  21. Width                                    : 1 920 pixels
  22. Height                                   : 800 pixels
  23. Display aspect ratio                     : 2.40:1
  24. Frame rate mode                          : Constant
  25. Frame rate                               : 24.000 FPS
  26. Color space                              : YUV
  27. Chroma subsampling                       : 4:2:0
  28. Bit depth                                : 10 bits
  29. Bits/(Pixel*Frame)                       : 0.148
  30. Stream size                              : 4.27 GiB (81%)
  31. Writing library                          : x265 2.6+14-f09f3b4a2115:[Windows][GCC 7.2.0][64 bit] 10bit
  32. Encoding settings                        : cpuid=533541173503 / frame-threads=2 / numa-pools=4 / wpp / no-pmode / no-pme / no-psnr / no-ssim / log-level=2 / input-csp=1 / input-res=1920x800 / interlace=0 / total-frames=161088 / level-idc=0 / high-tier=1 / uhd-bd=0 / ref=5 / no-allow-non-conformance / no-repeat-headers / annexb / no-aud / no-hrd / info / hash=0 / no-temporal-layers / no-open-gop / min-keyint=1 / keyint=360 / gop-lookahead=0 / bframes=8 / b-adapt=2 / b-pyramid / bframe-bias=0 / rc-lookahead=60 / lookahead-slices=4 / NTMzNTQ=uuDQuD2mJt9fsCf / scenecut=40 / no-intra-refresh / ctu=32 / min-cu-size=8 / no-rect / no-amp / max-tu-size=16 / tu-inter-depth=2 / tu-intra-depth=2 / limit-tu=4 / rdoq-level=2 / dynamic-rd=0.00 / ssim-rd / signhide / no-tskip / nr-intra=0 / nr-inter=0 / no-constrained-intra / no-strong-intra-smoothing / max-merge=3 / limit-refs=2 / limit-modes / me=3 / subme=5 / merange=25 / temporal-mvp / weightp / weightb / no-analyze-src-pics / deblock=-1:-1 / no-sao / no-sao-non-deblock / rd=4 / no-early-skip / no-rskip / no-fast-intra / no-tskip-fast / no-cu-lossless / b-intra / no-splitrd-skip / rdpenalty=1 / psy-rd=0.00 / psy-rdoq=5.00 / no-rd-refine / analysis-reuse-mode=0 / no-lossless / cbqpoffs=-2 / crqpoffs=-2 / rc=crf / crf=20.0 / qcomp=0.65 / qpstep=4 / stats-write=0 / stats-read=0 / ipratio=1.40 / pbratio=1.30 / aq-mode=3 / aq-strength=0.86 / cutree / zone-count=0 / no-strict-cbr / qg-size=16 / no-rc-grain / qpmax=69 / qpmin=0 / no-const-vbv / sar=1 / overscan=0 / videoformat=5 / range=0 / colorprim=1 / transfer=2 / colormatrix=2 / chromaloc=0 / display-window=0 / max-cll=0,0 / min-luma=0 / max-luma=1023 / log2-max-poc-lsb=8 / vui-timing-info / vui-hrd-info / slices=1 / no-opt-qp-pps / no-opt-ref-list-length-pps / no-multi-pass-opt-rps / scenecut-bias=0.05 / no-opt-cu-delta-qp / no-aq-motion / no-hdr / no-hdr-opt / no-dhdr10-opt / analysis-reuse-level=5 / scale-factor=0 / refine-intra=0 / refine-inter=0 / refine-mv=0 / no-limit-sao / ctu-info=0 / no-lowpass-dct / refine-mv-type=0 / copy-pic=1
  33. Default                                  : Yes
  34. Forced                                   : No
  35. Color range                              : Limited
  36. Color primaries                          : BT.709
  37. Audio #1
  38. ID                                       : 2
  39. Format                                   : AC-3
  40. Format/Info                              : Audio Coding 3
  41. Commercial name                          : Dolby Digital
  42. Codec ID                                 : A_AC3
  43. Duration                                 : 1 h 51 min
  44. Bit rate mode                            : Constant
  45. Bit rate                                 : 640 kb/s
  46. Channel(s)                               : 6 channels
  47. Channel layout                           : L R C LFE Ls Rs
  48. Sampling rate                            : 48.0 kHz
  49. Frame rate                               : 31.250 FPS (1536 SPF)
  50. Compression mode                         : Lossy
  51. Stream size                              : 512 MiB (9%)
  52. Title                                    : Cantonese
  53. Language                                 : Chinese
  54. Service kind                             : Complete Main
  55. Default                                  : Yes
  56. Forced                                   : Yes
  57. Audio #2
  58. ID                                       : 3
  59. Format                                   : AC-3
  60. Format/Info                              : Audio Coding 3
  61. Commercial name                          : Dolby Digital
  62. Codec ID                                 : A_AC3
  63. Duration                                 : 1 h 51 min
  64. Bit rate mode                            : Constant
  65. Bit rate                                 : 640 kb/s
  66. Channel(s)                               : 6 channels
  67. Channel layout                           : L R C LFE Ls Rs
  68. Sampling rate                            : 48.0 kHz
  69. Frame rate                               : 31.250 FPS (1536 SPF)
  70. Compression mode                         : Lossy
  71. Stream size                              : 512 MiB (9%)
  72. Title                                    : Thai
  73. Language                                 : Thai
  74. Service kind                             : Complete Main
  75. Default                                  : No
  76. Forced                                   : No
  77. Text #1
  78. ID                                       : 4
  79. Format                                   : PGS
  80. Muxing mode                              : zlib
  81. Codec ID                                 : S_HDMV/PGS
  82. Codec ID/Info                            : Picture based subtitle format used on BDs/HD-DVDs
  83. Duration                                 : 1 h 47 min
  84. Bit rate                                 : 10.9 kb/s
  85. Count of elements                        : 3046
  86. Stream size                              : 8.33 MiB (0%)
  87. Title                                    : CHT
  88. Language                                 : Chinese
  89. Default                                  : No
  90. Forced                                   : No
  91. Text #2
  92. ID                                       : 5
  93. Format                                   : PGS
  94. Muxing mode                              : zlib
  95. Codec ID                                 : S_HDMV/PGS
  96. Codec ID/Info                            : Picture based subtitle format used on BDs/HD-DVDs
  97. Duration                                 : 1 h 47 min
  98. Bit rate                                 : 11.3 kb/s
  99. Count of elements                        : 3046
  100. Stream size                              : 8.66 MiB (0%)
  101. Title                                    : CHS
  102. Language                                 : Chinese
  103. Default                                  : Yes
  104. Forced                                   : Yes
  105. Text #3
  106. ID                                       : 6
  107. Format                                   : PGS
  108. Muxing mode                              : zlib
  109. Codec ID                                 : S_HDMV/PGS
  110. Codec ID/Info                            : Picture based subtitle format used on BDs/HD-DVDs
  111. Duration                                 : 1 h 47 min
  112. Bit rate                                 : 10.1 kb/s
  113. Count of elements                        : 3046
  114. Stream size                              : 7.76 MiB (0%)
  115. Title                                    : ENG
  116. Language                                 : English
  117. Default                                  : No
  118. Forced                                   : No
  119. Menu
  120. 00:00:00.000                             : en:00:00:00.000
  121. 00:09:23.333                             : en:00:09:23.333
  122. 00:17:13.625                             : en:00:17:13.625
  123. 00:28:55.167                             : en:00:28:55.167
  124. 00:38:35.083                             : en:00:38:35.083
  125. 00:45:19.167                             : en:00:45:19.167
  126. 00:53:59.917                             : en:00:53:59.917
  127. 01:05:33.542                             : en:01:05:33.542
  128. 01:15:16.042                             : en:01:15:16.042
  129. 01:24:33.875                             : en:01:24:33.875
  130. 01:31:34.333                             : en:01:31:34.333
  131. 01:44:10.292                             : en:01:44:10.292





此处一般会放置磁力链或种子下载链接,不过此链接需要注册会员才能看到,点击“立即注册”
磁力链下载【下载链接仅对注册会员开放,登陆后可见】
BT9527电影天堂 1、BT9527电影天堂提供的BT文件均来源于互联网抓取,只供网友学习交流、技术提升使用。
2、我们遵守BitTorrent点对点协议原则,任何版权问题请联系原资源发布商,我们不处理任何版权纠纷,谢谢!如有争议请联系邮箱:BT9527#hotmail.com(#换成@)
3、如果您发现某页面或地址有错误,请联系站长邮箱BT9527#hotmail.com(#换成@),我们会尽快处理。您的热心是对BT9527电影天堂最大的支持。
4、本站建议去正规影院观看电影以支持电影行业发展。
最新回复 (0)

你可以在 登录 or 注册 后,对此帖发表评论!

返回
发新帖