再造战士4:清算之日[简繁字幕].Universal.Soldier.Day.of.Reckoning.2012.BluRay.1080p.x265.10bit-MiniHD 3.72GB

版主小s 8天前 50

✔资源类型:暂未分类   ✔电影年份:2012   ✔电影地区:欧美   ✔电影分类:动作

◎译  名 再造战士4:清算之日 / Universal Soldier IV
◎片  名 Universal Soldier: Day of Reckoning
◎年  代 2012
◎产  地 美国
◎类  别 动作 / 科幻 / 惊悚
◎语  言 英语
◎上映日期 2012-09-22(奥斯汀幻想电影节)
◎IMDb链接 https://www.imdb.com/title/tt1659343/
◎豆瓣评分 5.3/10 (3163人评价)
◎豆瓣链接 https://movie.douban.com/subject/5151665/
◎片  长 114分钟
◎导  演 约翰·海姆斯 John Hyams (id:1415018)
◎编  剧 约翰·海姆斯 John Hyams (id:1415018)
       Jon Greenhalgh Jon Greenhalgh (id:1356364)
       迪安·德夫林 Dean Devlin (id:1050031)
◎演  员 尚格·云顿 Jean-Claude Van Damme (id:1027149)
       杜夫·龙格尔 Dolph Lundgren (id:1040508)
       斯科特·阿金斯 Scott Adkins (id:1017912)
       玛丽亚·波纳 Mariah Bonner (id:1326318)
       安德烈·阿罗维斯基 Andrei Arlovski (id:1005027)
       詹姆斯·杜蒙特 James DuMont (id:1025390)
       大卫·詹森 David Jensen (id:1055924)
       罗斯·布莱克维尔 Rus Blackwell (id:1064258)
       戴恩·罗兹 Dane Rhodes (id:1330957)
       克里斯·云顿 Kris Van Damme (id:1331350)
       小罗伊·琼斯 Roy Jones Jr. (id:1191737)
       凯熙皮耶雷蒂 Casey Pieretti (id:1131596)
       朴云龙 Woon Young Park (id:1127857)
       丹尼斯·基弗 Dennis Keiffer (id:1323122)
       卢克·霍克斯 Luke Hawx (id:1253336)
       让·克劳德·卢耶 Jean Claude Leuyer (id:1254641)
       大卫·安东尼·布廖内 David Anthony Buglione (id:1253781)
       柴纳·迈克 Chyna Mccoy (id:1330486)
       阿诺德·庄 Arnold Chon (id:1028346)
       约翰·阿什克 John Ashker (id:1014485)
       Audrey P. Scott Audrey P. Scott (id:1371461)
       Andrew Sikking Andrew Sikking (id:1140059)
       贾里德·德帕斯夸尔 Jared DePasquale (id:1426164)

◎简  介
  在一个普通的夜晚,约翰(斯科特·阿金斯 Scott Adkins 饰)的家被几名蒙面人闯入,他遭到对方无情痛击,血流满面,疼痛难耐,接着妻子与可爱的女儿便在眼前被匪徒们枪杀。在昏迷长达数月后,约翰苏醒过来,他清楚记得曾摘下头套以真面目示人的匪徒头目的长相,从负责此案的FBI探员口中得知,此人名叫卢克·戴沃洛克斯(尚格·云顿 Jean-Claude Van Damme 饰),曾经是一名孔武骠悍的军人。约翰无论如何也想不透遭此厄运的缘由,回到家中,往昔美好情景历历浮现,令他痛苦不堪。在这一过程中,卢克宛如鬼魅一般时时刻刻搅扰约翰的神经,他尝试寻找真相,却发现那看似真实无疑的记忆竟也如此虚假。                                    
                                与此同时,卢克和一群曾经被操控的战士组织了反政府的武装,时刻图谋推翻奴役他们的统治者……
  1. ##### MediaInfo ######
  2. General
  3. Unique ID                                : 160014802277904828112616725472517567028 (0x7861BADC611CEC8116332C9212983234)
  4. Complete name                            : Universal.Soldier.Day.of.Reckoning.2012.BluRay.1080p.x265.10bit-MiniHD.mkv
  5. Format                                   : Matroska
  6. Format version                           : Version 4
  7. File size                                : 3.72 GiB
  8. Duration                                 : 1 h 53 min
  9. Overall bit rate                         : 4 686 kb/s
  10. Encoded date                             : UTC 2018-03-02 14:56:04
  11. Writing application                      : mkvmerge v20.0.0 ('I Am The Sun') 64-bit
  12. Writing library                          : libebml v1.3.5 + libmatroska v1.4.8
  13. Video
  14. ID                                       : 1
  15. Format                                   : HEVC
  16. Format/Info                              : High Efficiency Video Coding
  17. Format profile                           : Main 10@L4@Main
  18. Codec ID                                 : V_MPEGH/ISO/HEVC
  19. Duration                                 : 1 h 53 min
  20. Bit rate                                 : 3 952 kb/s
  21. Width                                    : 1 920 pixels
  22. Height                                   : 820 pixels
  23. Display aspect ratio                     : 2.35:1
  24. Frame rate mode                          : Constant
  25. Frame rate                               : 23.976 (24000/1001/53354) FPS
  26. Color space                              : YUV
  27. Chroma subsampling                       : 4:2:0
  28. Bit depth                                : 10 bits
  29. Bits/(Pixel*Frame)                       : 0.105
  30. Stream size                              : 3.14 GiB (84%)
  31. Writing library                          : x265 2.7+1-2aa737a99f51:[Windows][GCC 7.3.0][64 bit] 10bit
  32. Encoding settings                        : cpuid=533541173503 / frame-threads=3 / numa-pools=8 / wpp / no-pmode / no-pme / no-psnr / no-ssim / log-level=2 / csv / csv-log-level=0 / input-csp=1 / input-res=1920x820 / interlace=0 / total-frames=163464 / level-idc=0 / high-tier=1 / uhd-bd=0 / ref=5 / no-allow-non-conformance / no-repeat-headers / annexb / no-aud / no-hrd / info / hash=0 / no-temporal-layers / no-open-gop / min-keyint=1 / keyint=360 / gop-lookahead=0 / bframes=9 / b-adapt=2 / b-pyramid / bframe-bias=0 / rc-lookahead=60 / lookahead-slices=4 / NTMzNTQ=uuDQuD2mJt9fsCf / scenecut=40 / radl=0 / no-intra-refresh / ctu=32 / min-cu-size=8 / rect / no-amp / max-tu-size=16 / tu-inter-depth=2 / tu-intra-depth=2 / limit-tu=4 / rdoq-level=1 / dynamic-rd=0.00 / ssim-rd / signhide / no-tskip / nr-intra=0 / nr-inter=0 / no-constrained-intra / no-strong-intra-smoothing / max-merge=3 / limit-refs=2 / limit-modes / me=3 / subme=5 / merange=25 / temporal-mvp / weightp / weightb / no-analyze-src-pics / deblock=-1:-1 / no-sao / no-sao-non-deblock / rd=4 / no-early-skip / rskip / no-fast-intra / no-tskip-fast / no-cu-lossless / b-intra / no-splitrd-skip / rdpenalty=1 / psy-rd=0.00 / psy-rdoq=5.00 / no-rd-refine / no-lossless / cbqpoffs=-2 / crqpoffs=-2 / rc=crf / crf=19.0 / qcomp=0.70 / qpstep=4 / stats-write=0 / stats-read=0 / ipratio=1.40 / pbratio=1.30 / aq-mode=2 / aq-strength=0.80 / cutree / zone-count=0 / no-strict-cbr / qg-size=16 / no-rc-grain / qpmax=69 / qpmin=0 / no-const-vbv / sar=0 / overscan=0 / videoformat=5 / range=0 / colorprim=1 / transfer=2 / colormatrix=2 / chromaloc=0 / display-window=0 / max-cll=0,0 / min-luma=0 / max-luma=1023 / log2-max-poc-lsb=8 / vui-timing-info / vui-hrd-info / slices=1 / no-opt-qp-pps / no-opt-ref-list-length-pps / no-multi-pass-opt-rps / scenecut-bias=0.05 / no-opt-cu-delta-qp / no-aq-motion / no-hdr / no-hdr-opt / no-dhdr10-opt / analysis-reuse-level=5 / scale-factor=0 / refine-intra=0 / refine-inter=0 / refine-mv=0 / no-limit-sao / ctu-info=0 / no-lowpass-dct / refine-mv-type=0 / copy-pic=1
  33. Language                                 : Chinese
  34. Default                                  : Yes
  35. Forced                                   : No
  36. Color range                              : Limited
  37. Color primaries                          : BT.709
  38. Audio
  39. ID                                       : 4
  40. Format                                   : AC-3
  41. Format/Info                              : Audio Coding 3
  42. Commercial name                          : Dolby Digital
  43. Codec ID                                 : A_AC3
  44. Duration                                 : 1 h 53 min
  45. Bit rate mode                            : Constant
  46. Bit rate                                 : 640 kb/s
  47. Channel(s)                               : 6 channels
  48. Channel layout                           : L R C LFE Ls Rs
  49. Sampling rate                            : 48.0 kHz
  50. Frame rate                               : 31.250 FPS (1536 SPF)
  51. Compression mode                         : Lossy
  52. Stream size                              : 520 MiB (14%)
  53. Language                                 : English
  54. Service kind                             : Complete Main
  55. Default                                  : Yes
  56. Forced                                   : No
  57. Text #1
  58. ID                                       : 2
  59. Format                                   : PGS
  60. Muxing mode                              : zlib
  61. Codec ID                                 : S_HDMV/PGS
  62. Codec ID/Info                            : Picture based subtitle format used on BDs/HD-DVDs
  63. Title                                    : 繁英
  64. Language                                 : Chinese
  65. Default                                  : Yes
  66. Forced                                   : No
  67. Text #2
  68. ID                                       : 3
  69. Format                                   : PGS
  70. Muxing mode                              : zlib
  71. Codec ID                                 : S_HDMV/PGS
  72. Codec ID/Info                            : Picture based subtitle format used on BDs/HD-DVDs
  73. Title                                    : 简英
  74. Language                                 : Chinese
  75. Default                                  : No
  76. Forced                                   : No
  77. Menu
  78. 00:00:00.000                             : en:Chapter 01
  79. 00:06:36.104                             : en:Chapter 02
  80. 00:16:42.459                             : en:Chapter 03
  81. 00:23:33.078                             : en:Chapter 04
  82. 00:29:24.012                             : en:Chapter 05
  83. 00:37:57.191                             : en:Chapter 06
  84. 00:49:45.983                             : en:Chapter 07
  85. 00:59:27.230                             : en:Chapter 08
  86. 01:08:42.451                             : en:Chapter 09
  87. 01:18:18.902                             : en:Chapter 10
  88. 01:27:51.891                             : en:Chapter 11
  89. 01:34:59.860                             : en:Chapter 12
  90. 01:53:37.811                             : en:Chapter 13





此处一般会放置磁力链或种子下载链接,不过此链接需要注册会员才能看到,点击“立即注册”
磁力链下载【下载链接仅对注册会员开放,登陆后可见】
BT9527电影天堂 1、BT9527电影天堂提供的BT文件均来源于互联网抓取,只供网友学习交流、技术提升使用。
2、我们遵守BitTorrent点对点协议原则,任何版权问题请联系原资源发布商,我们不处理任何版权纠纷,谢谢!如有争议请联系邮箱:BT9527#hotmail.com(#换成@)
3、如果您发现某页面或地址有错误,请联系站长邮箱BT9527#hotmail.com(#换成@),我们会尽快处理。您的热心是对BT9527电影天堂最大的支持。
4、本站建议去正规影院观看电影以支持电影行业发展。
最新回复 (0)

你可以在 登录 or 注册 后,对此帖发表评论!

返回
发新帖