加菲猫[国粤英多音轨/简繁英字幕].Garfield.2004.BluRay.1080p.x265.10bit.4Audio-MiniHD 4.71GB

版主小s 3天前 23

✔资源类型:暂未分类   ✔电影年份:更 早   ✔电影地区:欧美   ✔电影分类:喜剧

◎译  名 加菲猫 / Garfield: The Movie
◎片  名 Garfield
◎年  代 2004
◎产  地 美国
◎类  别 喜剧 / 家庭
◎语  言 英语
◎上映日期 2004-12-17(中国大陆) / 2004-06-11(美国)
◎IMDb链接 https://www.imdb.com/title/tt0356634/
◎豆瓣评分 7.7/10 (144573人评价)
◎豆瓣链接 https://movie.douban.com/subject/1308776/
◎片  长 80 分钟
◎导  演 彼得·休伊特 Peter Hewitt (id:1286563)
◎编  剧 吉姆·戴维斯 Jim Davis (id:1081298)
       乔尔·科恩 Joel Cohen (id:1280989)
       亚历克·索科洛 Alec Sokolow (id:1298012)
◎演  员 布瑞金·梅耶 Breckin Meyer (id:1048133)
       詹妮弗·洛芙·休伊特 Jennifer Love Hewitt (id:1027777)
       斯蒂芬·托布罗斯基 Stephen Tobolowsky (id:1019062)
       比尔·默瑞 Bill Murray (id:1054508)
       埃文·阿诺德 Evan Arnold (id:1329526)
       马克·克里斯托弗·劳伦斯 Mark Christopher Lawrence (id:1113296)
       凡妮莎·克里斯泰勒 Vanessa Christelle (id:1379434)
       Daamen J. Krall Daamen J. Krall (id:1028391)
       Ryan McKasson Ryan McKasson (id:1187867)
       伊芙·布伦特 Eve Brent (id:1279260)
       迈克尔·蒙克斯 Michael Monks (id:1348762)
       梅尔·罗德里格斯 Mel Rodriguez (id:1348244)
       朱丽叶·戈利亚 Juliette Goglia (id:1217324)
       雷纳·特奎拉 Leyna Nguyen (id:1135697)
       弗兰克·佩恩 Frank Payne (id:1456655)
       乔·奥克曼 Joe Ochman (id:1387248)
       Danna Hansen Danna Hansen (id:1096206)
       乔·唐尼 Joe Towne (id:1186106)
       Joseph Hale Joseph Hale (id:1208017)
       尼克·卡农 Nick Cannon (id:1027836)
       艾伦·卡明 Alan Cumming (id:1006980)
       大卫·艾根伯格 David Eigenberg (id:1044912)
       布拉德·加内特 Brad Garrett (id:1002727)
       吉米·坎摩尔 Jimmy Kimmel (id:1040719)
       黛博拉·梅辛 Debra Messing (id:1022653)
       理查德·坎德 Richard Kind (id:1041144)
       黛布拉·乔·拉普 Debra Jo Rupp (id:1031964)
       怀亚特史密斯 Wyatt Smith (id:1215627)
       艾莉森·斯通勒 Alyson Stoner (id:1022584)
       吉姆·戴维斯 Jim Davis (id:1081298)
       约翰·戴维斯 John Davis (id:1281912)
       克里斯托弗·贝克 Christophe Beck (id:1278180)
       迪恩·康迪 Dean Cundey (id:1032588)
       彼得·E·伯格 Peter E. Berger (id:1278433)
       Michael A. Stevenson Michael A. Stevenson (id:1298426)
       里萨·布雷蒙·加西亚 Risa Bramon Garcia (id:1284503)
       Brennan Dufresne Brennan Dufresne (id:1088582)
       加里·费迪斯 Gary Fettis (id:1283648)
       苏蒂拉特·安妮·拉布 Suttirat Anne Larlarb (id:1302338)
       Bonita DeHaven Bonita DeHaven (id:1282150)
       马克·瓦尔戈 Mark Vargo (id:1045732)
       Mark Trapenberg Mark Trapenberg (id:1299484)
       Michele Panelli-Venetis Michele Panelli-Venetis (id:1128109)
       卡罗琳·布鲁克斯 Carolyn Brooks (id:1175385)
       Brock J. Stearn Brock J. Stearn (id:1183099)
       丹·德里伍 Dan DeLeeuw (id:1388220)
       保罗·弗明格 Paul Furminger (id:1183163)
       Michael C. Jones Michael C. Jones (id:1183371)
       Mathew Krentz Mathew Krentz (id:1183551)
       Jason Shulman Jason Shulman (id:1184593)
       David Stone David Stone (id:1172061)
       托尼·艾蒂安 Tony Etienne (id:1170802)
       Mike Pemberton Mike Pemberton (id:1167047)
       Ryan Cronin Ryan Cronin (id:1164175)
       Trevor Strand Trevor Strand (id:1153655)
       Cameron Smith Cameron Smith (id:1150422)
       Marc Roth Marc Roth (id:1139035)
       Wendy Mashburn Wendy Mashburn (id:1126058)
       George Macri George Macri (id:1124081)
       Todd Sellers Todd Sellers (id:1191961)
       Lorraine Rozon Lorraine Rozon (id:1192939)
       Scott Kravitz Scott Kravitz (id:1199347)
       Gareth Dinneen Gareth Dinneen (id:1306880)
       麦特·沙姆韦 Matt Shumway (id:1305856)
       Stuart Cripps Stuart Cripps (id:1302245)
       Rich Thorne Rich Thorne (id:1299226)
       Jinnie Pak Jinnie Pak (id:1293822)
       雷·麦金太尔 Ray McIntyre Jr. (id:1291625)
       比尔·克罗耶尔 Bill Kroyer (id:1289058)
       Les G. Jones Les G. Jones (id:1287881)
       Peter Hunt Peter Hunt (id:1287171)
       乔丹·本威克 Jordan Benwick (id:1302094)
       David Stump David Stump (id:1276361)
        Mitch Fishman (id:1221150)
       内森·布伦斯基尔 Nathan Brunskill (id:1214021)
       杰森·昆塔纳 Jason Quintana (id:1210284)
       Johnny Turco Johnny Turco (id:1204948)
       Mike Sandrik Mike Sandrik (id:1201782)
       Jennifer Meislohn Jennifer Meislohn (id:1121992)
       丹尼尔·梅利兹 Daniel Mellitz (id:1115758)
       西蒙·阿格 Simon Ager (id:1060292)
       Paul Winze Paul Winze (id:1011893)
       Devin Bunje Devin Bunje (id:1007680)
       安东尼·哈里斯 Anthony Harris (id:1017246)
       托尼·巴拉萨 Tony Barraza (id:1061802)
       Kevin Culhane Kevin Culhane (id:1071087)
       杰弗里·卡斯特·代·奥罗 Jeffrey Castel De Oro (id:1077823)
       克里斯托弗·米尔斯 Christopher Mills (id:1007378)
       布兰登·克雷格 Brandon Craig (id:1017538)
       Audrea Topps Harjo Audrea Topps Harjo (id:1093587)
       Connie Kennedy Connie Kennedy (id:1110473)
       迈克尔·卡普 Michael Karp (id:1109015)
       Pamela Choules Pamela Choules (id:1054990)
       克里斯·贝利 Chris Bailey (id:1001472)
       David M. Katz David M. Katz (id:1108388)
       丹·拉扎洛 Dan Lazarow (id:1106331)
       Chris Doll Chris Doll (id:1035836)
       埃文·希夫 Evan Schiff (id:1011242)

◎简  介
  加菲猫从小到大的生活都沉浸在――高热量的食物,睡觉,捉弄愚蠢的狗狗和主人乔恩?阿卜(布瑞金?梅耶 Breckin Meyer  饰)的宠爱中,加菲觉得这就是完美的生活。直到有一天,乔恩带加菲去宠物医院时,受美女兽医所托领养了小狗欧弟,加菲的生活彻底改变。                                    
                                欧弟的到来意味着要和加菲分享食物和阿卜的宠爱,更让加菲嫉妒的是阿卜和美女兽医约会竟然带欧弟而不带它。加菲恨不得将欧弟赶出家门。一晚,加菲将欧弟关在门外,原只想惩罚一下欧弟,没想到欧弟走失了。                                    
                                阿卜四出寻找欧弟未果。加菲通过调查,得知欧弟被残忍的训狗师捉走了。加菲决定大展身手,只身前往救出欧弟。
  1. ##### MediaInfo ######
  2. General
  3. Unique ID                                : 310434494300270301987523456120049451699 (0xE98B8242F7F6F77CAE39E139A9B942B3)
  4. Complete name                            : Garfield.2004.BluRay.1080p.x265.10bit.4Audio-MiniHD.mkv
  5. Format                                   : Matroska
  6. Format version                           : Version 4
  7. File size                                : 4.71 GiB
  8. Duration                                 : 1 h 20 min
  9. Overall bit rate                         : 8 409 kb/s
  10. Encoded date                             : UTC 2018-03-07 04:20:41
  11. Writing application                      : mkvmerge v21.0.0 ('Tardigrades Will Inherit The Earth') 64-bit
  12. Writing library                          : libebml v1.3.5 + libmatroska v1.4.8
  13. Video
  14. ID                                       : 1
  15. Format                                   : HEVC
  16. Format/Info                              : High Efficiency Video Coding
  17. Format profile                           : Main 10@L4@Main
  18. Codec ID                                 : V_MPEGH/ISO/HEVC
  19. Duration                                 : 1 h 20 min
  20. Bit rate                                 : 6 585 kb/s
  21. Width                                    : 1 912 pixels
  22. Height                                   : 1 036 pixels
  23. Display aspect ratio                     : 1.85:1
  24. Frame rate mode                          : Constant
  25. Frame rate                               : 23.976 (24000/1001/53354) FPS
  26. Color space                              : YUV
  27. Chroma subsampling                       : 4:2:0
  28. Bit depth                                : 10 bits
  29. Bits/(Pixel*Frame)                       : 0.139
  30. Stream size                              : 3.69 GiB (78%)
  31. Writing library                          : x265 2.7+1-2aa737a99f51:[Windows][GCC 7.3.0][64 bit] 10bit
  32. Encoding settings                        : cpuid=533541173503 / frame-threads=3 / numa-pools=8 / wpp / no-pmode / no-pme / no-psnr / no-ssim / log-level=2 / input-csp=1 / input-res=1912x1036 / interlace=0 / total-frames=115379 / level-idc=0 / high-tier=1 / uhd-bd=0 / ref=5 / no-allow-non-conformance / no-repeat-headers / annexb / no-aud / no-hrd / info / hash=0 / no-temporal-layers / no-open-gop / min-keyint=1 / keyint=360 / gop-lookahead=0 / bframes=8 / b-adapt=2 / b-pyramid / bframe-bias=0 / rc-lookahead=60 / lookahead-slices=4 / NTMzNTQ=uuDQuD2mJt9fsCf / scenecut=40 / radl=0 / no-intra-refresh / ctu=32 / min-cu-size=8 / rect / no-amp / max-tu-size=16 / tu-inter-depth=2 / tu-intra-depth=2 / limit-tu=4 / rdoq-level=1 / dynamic-rd=0.00 / ssim-rd / signhide / no-tskip / nr-intra=0 / nr-inter=0 / no-constrained-intra / no-strong-intra-smoothing / max-merge=3 / limit-refs=2 / limit-modes / me=3 / subme=5 / merange=25 / temporal-mvp / weightp / weightb / no-analyze-src-pics / deblock=-1:-1 / no-sao / no-sao-non-deblock / rd=4 / no-early-skip / rskip / no-fast-intra / no-tskip-fast / no-cu-lossless / b-intra / no-splitrd-skip / rdpenalty=1 / psy-rd=0.00 / psy-rdoq=5.00 / no-rd-refine / no-lossless / cbqpoffs=-2 / crqpoffs=-2 / rc=crf / crf=19.0 / qcomp=0.70 / qpstep=4 / stats-write=0 / stats-read=0 / ipratio=1.40 / pbratio=1.30 / aq-mode=2 / aq-strength=0.80 / cutree / zone-count=0 / no-strict-cbr / qg-size=16 / no-rc-grain / qpmax=69 / qpmin=0 / no-const-vbv / sar=1 / overscan=0 / videoformat=5 / range=0 / colorprim=1 / transfer=2 / colormatrix=2 / chromaloc=0 / display-window=0 / max-cll=0,0 / min-luma=0 / max-luma=1023 / log2-max-poc-lsb=8 / vui-timing-info / vui-hrd-info / slices=1 / no-opt-qp-pps / no-opt-ref-list-length-pps / no-multi-pass-opt-rps / scenecut-bias=0.05 / no-opt-cu-delta-qp / no-aq-motion / no-hdr / no-hdr-opt / no-dhdr10-opt / analysis-reuse-level=5 / scale-factor=0 / refine-intra=0 / refine-inter=0 / refine-mv=0 / no-limit-sao / ctu-info=0 / no-lowpass-dct / refine-mv-type=0 / copy-pic=1
  33. Default                                  : Yes
  34. Forced                                   : No
  35. Color range                              : Limited
  36. Color primaries                          : BT.709
  37. Audio #1
  38. ID                                       : 2
  39. Format                                   : AC-3
  40. Format/Info                              : Audio Coding 3
  41. Commercial name                          : Dolby Digital
  42. Codec ID                                 : A_AC3
  43. Duration                                 : 1 h 20 min
  44. Bit rate mode                            : Constant
  45. Bit rate                                 : 640 kb/s
  46. Channel(s)                               : 6 channels
  47. Channel layout                           : L R C LFE Ls Rs
  48. Sampling rate                            : 48.0 kHz
  49. Frame rate                               : 31.250 FPS (1536 SPF)
  50. Compression mode                         : Lossy
  51. Stream size                              : 367 MiB (8%)
  52. Title                                    : 英语 AC3 5.1 640K
  53. Language                                 : English
  54. Service kind                             : Complete Main
  55. Default                                  : Yes
  56. Forced                                   : No
  57. Audio #2
  58. ID                                       : 3
  59. Format                                   : AC-3
  60. Format/Info                              : Audio Coding 3
  61. Commercial name                          : Dolby Digital
  62. Codec ID                                 : A_AC3
  63. Duration                                 : 1 h 20 min
  64. Bit rate mode                            : Constant
  65. Bit rate                                 : 224 kb/s
  66. Channel(s)                               : 2 channels
  67. Channel layout                           : L R
  68. Sampling rate                            : 48.0 kHz
  69. Frame rate                               : 31.250 FPS (1536 SPF)
  70. Compression mode                         : Lossy
  71. Stream size                              : 129 MiB (3%)
  72. Title                                    : 国配 AC3 2.0 224K
  73. Language                                 : Chinese
  74. Service kind                             : Complete Main
  75. Default                                  : No
  76. Forced                                   : No
  77. Audio #3
  78. ID                                       : 4
  79. Format                                   : AC-3
  80. Format/Info                              : Audio Coding 3
  81. Commercial name                          : Dolby Digital
  82. Codec ID                                 : A_AC3
  83. Duration                                 : 1 h 20 min
  84. Bit rate mode                            : Constant
  85. Bit rate                                 : 448 kb/s
  86. Channel(s)                               : 6 channels
  87. Channel layout                           : L R C LFE Ls Rs
  88. Sampling rate                            : 48.0 kHz
  89. Frame rate                               : 31.250 FPS (1536 SPF)
  90. Compression mode                         : Lossy
  91. Stream size                              : 257 MiB (5%)
  92. Title                                    : 粤语 AC3 5.1 448K
  93. Language                                 : Chinese
  94. Service kind                             : Complete Main
  95. Default                                  : No
  96. Forced                                   : No
  97. Audio #4
  98. ID                                       : 5
  99. Format                                   : AC-3
  100. Format/Info                              : Audio Coding 3
  101. Commercial name                          : Dolby Digital
  102. Codec ID                                 : A_AC3
  103. Duration                                 : 1 h 20 min
  104. Bit rate mode                            : Constant
  105. Bit rate                                 : 448 kb/s
  106. Channel(s)                               : 6 channels
  107. Channel layout                           : L R C LFE Ls Rs
  108. Sampling rate                            : 48.0 kHz
  109. Frame rate                               : 31.250 FPS (1536 SPF)
  110. Compression mode                         : Lossy
  111. Stream size                              : 257 MiB (5%)
  112. Title                                    : 台配 AC3 5.1 448K
  113. Language                                 : Chinese
  114. Service kind                             : Complete Main
  115. Default                                  : No
  116. Forced                                   : No
  117. Text #1
  118. ID                                       : 6
  119. Format                                   : PGS
  120. Muxing mode                              : zlib
  121. Codec ID                                 : S_HDMV/PGS
  122. Codec ID/Info                            : Picture based subtitle format used on BDs/HD-DVDs
  123. Duration                                 : 1 h 12 min
  124. Bit rate                                 : 49.2 kb/s
  125. Count of elements                        : 2099
  126. Stream size                              : 25.7 MiB (1%)
  127. Title                                    : 简英双语
  128. Language                                 : Chinese
  129. Default                                  : No
  130. Forced                                   : No
  131. Text #2
  132. ID                                       : 7
  133. Format                                   : PGS
  134. Muxing mode                              : zlib
  135. Codec ID                                 : S_HDMV/PGS
  136. Codec ID/Info                            : Picture based subtitle format used on BDs/HD-DVDs
  137. Duration                                 : 1 h 18 min
  138. Bit rate                                 : 42.3 kb/s
  139. Count of elements                        : 2017
  140. Stream size                              : 23.7 MiB (0%)
  141. Title                                    : 英语
  142. Language                                 : English
  143. Default                                  : Yes
  144. Forced                                   : No
  145. Text #3
  146. ID                                       : 8
  147. Format                                   : PGS
  148. Muxing mode                              : zlib
  149. Codec ID                                 : S_HDMV/PGS
  150. Codec ID/Info                            : Picture based subtitle format used on BDs/HD-DVDs
  151. Duration                                 : 1 h 19 min
  152. Bit rate                                 : 27.7 kb/s
  153. Count of elements                        : 2094
  154. Stream size                              : 15.8 MiB (0%)
  155. Title                                    : 简体
  156. Language                                 : Chinese
  157. Default                                  : No
  158. Forced                                   : No
  159. Text #4
  160. ID                                       : 9
  161. Format                                   : PGS
  162. Muxing mode                              : zlib
  163. Codec ID                                 : S_HDMV/PGS
  164. Codec ID/Info                            : Picture based subtitle format used on BDs/HD-DVDs
  165. Duration                                 : 1 h 19 min
  166. Bit rate                                 : 29.3 kb/s
  167. Count of elements                        : 1762
  168. Stream size                              : 16.6 MiB (0%)
  169. Title                                    : 繁体
  170. Language                                 : Chinese
  171. Default                                  : No
  172. Forced                                   : No
  173. Menu
  174. 00:00:00.000                             : en:Chapter 1
  175. 00:01:50.735                             : en:Chapter 2
  176. 00:03:59.197                             : en:Chapter 3
  177. 00:06:37.855                             : en:Chapter 4
  178. 00:08:32.970                             : en:Chapter 5
  179. 00:10:27.418                             : en:Chapter 6
  180. 00:12:19.447                             : en:Chapter 7
  181. 00:14:53.726                             : en:Chapter 8
  182. 00:18:55.801                             : en:Chapter 9
  183. 00:20:52.334                             : en:Chapter 10
  184. 00:23:36.540                             : en:Chapter 11
  185. 00:25:02.459                             : en:Chapter 12
  186. 00:28:07.018                             : en:Chapter 13
  187. 00:30:05.637                             : en:Chapter 14
  188. 00:31:35.476                             : en:Chapter 15
  189. 00:33:26.170                             : en:Chapter 16
  190. 00:42:21.330                             : en:Chapter 17
  191. 00:45:54.158                             : en:Chapter 18
  192. 00:50:17.129                             : en:Chapter 19
  193. 00:52:41.273                             : en:Chapter 20
  194. 00:57:31.105                             : en:Chapter 21
  195. 01:00:40.419                             : en:Chapter 22
  196. 01:02:11.843                             : en:Chapter 23
  197. 01:05:43.388                             : en:Chapter 24
  198. 01:06:18.924                             : en:Chapter 25
  199. 01:07:51.224                             : en:Chapter 26
  200. 01:11:17.972                             : en:Chapter 27
  201. 01:13:24.182                             : en:Chapter 28





此处一般会放置磁力链或种子下载链接,不过此链接需要注册会员才能看到,点击“立即注册”
磁力链下载【下载链接仅对注册会员开放,登陆后可见】
BT9527电影天堂 1、BT9527电影天堂提供的BT文件均来源于互联网抓取,只供网友学习交流、技术提升使用。
2、我们遵守BitTorrent点对点协议原则,任何版权问题请联系原资源发布商,我们不处理任何版权纠纷,谢谢!如有争议请联系邮箱:BT9527#hotmail.com(#换成@)
3、如果您发现某页面或地址有错误,请联系站长邮箱BT9527#hotmail.com(#换成@),我们会尽快处理。您的热心是对BT9527电影天堂最大的支持。
4、本站建议去正规影院观看电影以支持电影行业发展。
最新回复 (0)

你可以在 登录 or 注册 后,对此帖发表评论!

返回
发新帖