冲出康普顿[简英特效字幕].Straight.Outta.Compton.2015.DC.1080p.BluRay.1080p.x265.10bit-MiniHD 5.04GB

版主小s 3月前 142

✔资源类型:暂未分类   ✔电影年份:2015   ✔电影地区:欧美   ✔电影分类:剧情

◎译  名 冲出康普顿 / 再别康城
◎片  名 Straight Outta Compton
◎年  代 2015
◎产  地 美国
◎类  别 剧情 / 音乐 / 传记
◎语  言 英语
◎上映日期 2015-08-14(美国)
◎IMDb链接 https://www.imdb.com/title/tt1398426/
◎豆瓣评分 7.8/10 (14734人评价)
◎豆瓣链接 https://movie.douban.com/subject/3608742/
◎片  长 147分钟
◎导  演 F·加里·格雷 F. Gary Gray (id:1009396)
◎编  剧 乔纳森·赫尔曼 Jonathan Herman (id:1351533)
       S·雷·利萨维治 S. Leigh Savidge (id:1351534)
       艾伦·温库 Alan Wenkus (id:1351535)
       安德丽亚·贝尔洛夫 Andrea Berloff (id:1351536)
       谢尔顿·特纳 Sheldon Turner (id:1274269)
◎演  员 科里·霍金斯 Corey Hawkins (id:1341485)
       杰森·米切尔 Jason Mitchell (id:1351529)
       小奥谢拉·杰克逊 O'Shea Jackson Jr. (id:1347801)
       阿尔迪斯·霍吉 Aldis Hodge (id:1098575)
       保罗·吉亚玛提 Paul Giamatti (id:1017893)
       勒凯斯·斯坦菲尔德 Lakeith Stanfield (id:1272798)
       小尼尔·布朗 Neil Brown Jr. (id:1074435)
       小马龙·耶茨 Marlon Yates Jr. (id:1351530)
       马修·博兰 Matthew Boylan (id:1321550)
       R·马科斯·泰勒 R. Marcos Taylor (id:1351531)
       卡拉·帕特森 Carra Patterson (id:1351532)
       亚历山德拉·希普 Alexandra Shipp (id:1346503)
       科瑞·雷诺兹 Corey Reynolds (id:1313614)
       泰伦·伍德利 Tyron Woodley (id:1360638)
       Ciera Foster Ciera Foster (id:1369039)
       乔赛亚·布莱克 Josiah Black (id:1383399)
       萨鲁纳斯·J·杰克逊 Sarunas J. Jackson (id:1409904)
       大卫·皮尔 David Pearl (id:1432775)
       莱昂内尔·克劳德  (id:1459673)
       卡德罗莎·奥娜·卡罗尔  (id:1459808)
       丽贝卡·奥莱伊尼恰克 Rebecca Olejniczak (id:1347800)
       F·加里·格雷 F. Gary Gray (id:1009396)
       安德鲁·博尔巴 Andrew Borba (id:1344601)
       S·雷·利萨维治 S. Leigh Savidge (id:1351534)
       阿伦·马尔多纳多 Allen Maldonado (id:1192069)
       乔纳森·赫尔曼 Jonathan Herman (id:1351533)
       F·加里·格雷 F. Gary Gray (id:1009396)
       托马斯·图尔 Thomas Tull (id:1348364)
       约瑟夫·特雷帕尼斯 Joseph Trapanese (id:1378570)
       马修·利巴提克 Matthew Libatique (id:1009698)
       张鹏 Peng Zhang (id:1307141)
       马特·姆林斯 Matt Mullins (id:1197747)

◎简  介
  1980年代中期,加州康普顿的街头因犯罪、毒品、黑帮等问题成为美国最危险的地方之一,五个出身此地的年轻人:爱斯·库柏(小奥谢拉·杰克逊 O'Shea Jackson Jr. 饰)、MC Ren(阿尔迪斯·霍吉 Aldis Hodge 饰)、德瑞博士(科里·霍金斯 Cor ey Hawkins 饰)、DJ耶拉(小尼尔·布朗 Neil Brown Jr. 饰)、Eazy-E(杰森·米切尔 Jason Mitchell 饰)集合起来,组成了说唱组合N.W.A,将他们的成长经历转化成粗鲁直接的音乐,并借此向当局传达他们的反抗心声。

◎获奖情况 (共8项)
  第88届奥斯卡金像奖 (2016)
  最佳原创剧本(提名)

  第22届美国演员工会奖 (2016)
  电影奖 最佳群戏(提名)

  第68届美国编剧工会奖 (2016)
  电影奖 最佳原创剧本(提名)

  第27届美国制片人工会奖 (2016)
  最佳电影制片人奖(提名)

  第87届美国国家评论协会奖 (2015)
  年度佳片

  第21届美国评论家选择电影奖 (2016)
  最佳群戏(提名)

  第16届美国电影学会奖 (2015)
  年度佳片

  第19届好莱坞电影奖 (2015)
  最佳突破群戏

  1. ##### MediaInfo ######
  2. General
  3. Unique ID                                : 194147684482641460989598872270327598960 (0x920F7BE20A674F4289F7C32FD0894F70)
  4. Complete name                            : Straight.Outta.Compton.2015.DC.1080p.BluRay.1080p.x265.10bit-MiniHD.mkv
  5. Format                                   : Matroska
  6. Format version                           : Version 4
  7. File size                                : 5.03 GiB
  8. Duration                                 : 2 h 46 min
  9. Overall bit rate                         : 4 323 kb/s
  10. Encoded date                             : UTC 2018-01-02 15:34:17
  11. Writing application                      : mkvmerge v19.0.0 ('Brave Captain') 64-bit
  12. Writing library                          : libebml v1.3.5 + libmatroska v1.4.8
  13. Video
  14. ID                                       : 1
  15. Format                                   : HEVC
  16. Format/Info                              : High Efficiency Video Coding
  17. Format profile                           : Main 10@L4@Main
  18. Codec ID                                 : V_MPEGH/ISO/HEVC
  19. Duration                                 : 2 h 46 min
  20. Bit rate                                 : 2 799 kb/s
  21. Width                                    : 1 920 pixels
  22. Height                                   : 800 pixels
  23. Display aspect ratio                     : 2.40:1
  24. Frame rate mode                          : Constant
  25. Frame rate                               : 23.976 (24000/1001/53354) FPS
  26. Color space                              : YUV
  27. Chroma subsampling                       : 4:2:0
  28. Bit depth                                : 10 bits
  29. Bits/(Pixel*Frame)                       : 0.076
  30. Stream size                              : 3.26 GiB (65%)
  31. Writing library                          : x265 2.6+22-ff02513b92c0:[Windows][MSVC 1900][64 bit] 10bit+8bit
  32. Encoding settings                        : cpuid=533541173503 / frame-threads=2 / numa-pools=4 / wpp / no-pmode / no-pme / no-psnr / no-ssim / log-level=2 / input-csp=1 / input-res=1920x800 / interlace=0 / total-frames=239852 / level-idc=0 / high-tier=1 / uhd-bd=0 / ref=5 / no-allow-non-conformance / no-repeat-headers / annexb / no-aud / no-hrd / info / hash=0 / no-temporal-layers / no-open-gop / min-keyint=1 / keyint=360 / gop-lookahead=0 / bframes=8 / b-adapt=2 / b-pyramid / bframe-bias=0 / rc-lookahead=60 / lookahead-slices=4 / NTMzNTQ=uuDQuD2mJt9fsCf / scenecut=40 / radl=0 / no-intra-refresh / ctu=32 / min-cu-size=8 / rect / no-amp / max-tu-size=16 / tu-inter-depth=2 / tu-intra-depth=2 / limit-tu=4 / rdoq-level=1 / dynamic-rd=0.00 / ssim-rd / signhide / no-tskip / nr-intra=0 / nr-inter=0 / no-constrained-intra / no-strong-intra-smoothing / max-merge=3 / limit-refs=2 / limit-modes / me=3 / subme=5 / merange=25 / temporal-mvp / weightp / weightb / no-analyze-src-pics / deblock=-1:-1 / no-sao / no-sao-non-deblock / rd=4 / no-early-skip / rskip / no-fast-intra / no-tskip-fast / no-cu-lossless / b-intra / no-splitrd-skip / rdpenalty=1 / psy-rd=0.00 / psy-rdoq=5.00 / no-rd-refine / no-lossless / cbqpoffs=-2 / crqpoffs=-2 / rc=crf / crf=18.0 / qcomp=0.65 / qpstep=4 / stats-write=0 / stats-read=0 / ipratio=1.40 / pbratio=1.30 / aq-mode=2 / aq-strength=0.80 / cutree / zone-count=0 / no-strict-cbr / qg-size=16 / no-rc-grain / qpmax=69 / qpmin=0 / no-const-vbv / sar=0 / overscan=0 / videoformat=5 / range=0 / colorprim=1 / transfer=2 / colormatrix=2 / chromaloc=0 / display-window=0 / max-cll=0,0 / min-luma=0 / max-luma=1023 / log2-max-poc-lsb=8 / vui-timing-info / vui-hrd-info / slices=1 / no-opt-qp-pps / no-opt-ref-list-length-pps / no-multi-pass-opt-rps / scenecut-bias=0.05 / no-opt-cu-delta-qp / no-aq-motion / no-hdr / no-hdr-opt / no-dhdr10-opt / analysis-save=(null) / analysis-load=(null) / analysis-reuse-level=5 / scale-factor=0 / refine-intra=0 / refine-inter=0 / refine-mv=0 / no-limit-sao / ctu-info=0 / no-lowpass-dct / refine-mv-type=0 / copy-pic=1
  33. Language                                 : English
  34. Default                                  : Yes
  35. Forced                                   : No
  36. Color range                              : Limited
  37. Color primaries                          : BT.709
  38. Audio
  39. ID                                       : 2
  40. Format                                   : DTS
  41. Format/Info                              : Digital Theater Systems
  42. Codec ID                                 : A_DTS
  43. Duration                                 : 2 h 46 min
  44. Bit rate mode                            : Constant
  45. Bit rate                                 : 1 509 kb/s
  46. Channel(s)                               : 6 channels
  47. Channel layout                           : C L R Ls Rs LFE
  48. Sampling rate                            : 48.0 kHz
  49. Frame rate                               : 93.750 FPS (512 SPF)
  50. Bit depth                                : 24 bits
  51. Compression mode                         : Lossy
  52. Stream size                              : 1.76 GiB (35%)
  53. Language                                 : English
  54. Default                                  : Yes
  55. Forced                                   : No
  56. Text #1
  57. ID                                       : 3
  58. Format                                   : PGS
  59. Muxing mode                              : zlib
  60. Codec ID                                 : S_HDMV/PGS
  61. Codec ID/Info                            : Picture based subtitle format used on BDs/HD-DVDs
  62. Duration                                 : 2 h 46 min
  63. Bit rate                                 : 71.7 kb/s
  64. Count of elements                        : 6084
  65. Stream size                              : 85.2 MiB (2%)
  66. Title                                    : English
  67. Language                                 : English
  68. Default                                  : Yes
  69. Forced                                   : No
  70. Text #2
  71. ID                                       : 4
  72. Format                                   : ASS
  73. Codec ID                                 : S_TEXT/ASS
  74. Codec ID/Info                            : Advanced Sub Station Alpha
  75. Duration                                 : 2 h 44 min
  76. Bit rate                                 : 268 b/s
  77. Count of elements                        : 6207
  78. Compression mode                         : Lossless
  79. Stream size                              : 323 KiB (0%)
  80. Title                                    : 简英特效
  81. Language                                 : Chinese
  82. Default                                  : No
  83. Forced                                   : No
  84. Menu
  85. 00:00:00.000                             : en:Chapter 01
  86. 00:05:46.137                             : en:Chapter 02
  87. 00:09:53.676                             : en:Chapter 03
  88. 00:17:30.257                             : en:Chapter 04
  89. 00:26:33.008                             : en:Chapter 05
  90. 00:35:38.261                             : en:Chapter 06
  91. 00:47:27.010                             : en:Chapter 07
  92. 00:55:36.750                             : en:Chapter 08
  93. 01:04:40.209                             : en:Chapter 09
  94. 01:11:25.656                             : en:Chapter 10
  95. 01:18:58.942                             : en:Chapter 11
  96. 01:25:45.265                             : en:Chapter 12
  97. 01:33:54.545                             : en:Chapter 13
  98. 01:44:19.795                             : en:Chapter 14
  99. 01:54:01.543                             : en:Chapter 15
  100. 02:02:53.991                             : en:Chapter 16
  101. 02:16:10.120                             : en:Chapter 17
  102. 02:26:22.315                             : en:Chapter 18
  103. 02:33:04.967                             : en:Chapter 19
  104. 02:39:19.883                             : en:Chapter 20





此处一般会放置磁力链或种子下载链接,不过此链接需要注册会员才能看到,点击“立即注册”
磁力链下载【下载链接仅对注册会员开放,登陆后可见】
BT9527电影天堂 1、BT9527电影天堂提供的BT文件均来源于互联网抓取,只供网友学习交流、技术提升使用。
2、我们遵守BitTorrent点对点协议原则,任何版权问题请联系原资源发布商,我们不处理任何版权纠纷,谢谢!如有争议请联系邮箱:BT9527#hotmail.com(#换成@)
3、如果您发现某页面或地址有错误,请联系站长邮箱BT9527#hotmail.com(#换成@),我们会尽快处理。您的热心是对BT9527电影天堂最大的支持。
4、本站建议去正规影院观看电影以支持电影行业发展。
最新回复 (0)

你可以在 登录 or 注册 后,对此帖发表评论!

返回