兵人[国英多音轨/简繁英字幕].Soldier.1998.BluRay.1080p.x265.10bit.2Audio-MiniHD 3.54GB

版主小s 3天前 56

✔资源类型:暂未分类   ✔电影年份:更 早   ✔电影地区:欧美   ✔电影分类:剧情

◎译  名 兵人
◎片  名 Soldier
◎年  代 1998
◎产  地 英国 / 美国
◎类  别 剧情 / 动作 / 科幻
◎语  言 英语
◎上映日期 1998-10-23
◎IMDb链接 https://www.imdb.com/title/tt0120157/
◎豆瓣评分 7.0/10 (16343人评价)
◎豆瓣链接 https://movie.douban.com/subject/1294353/
◎片  长 99 分钟
◎导  演 保罗·安德森 Paul W.S. Anderson (id:1031921)
◎编  剧 大卫·韦伯·皮普尔斯 David Webb Peoples (id:1294259)
◎演  员 库尔特·拉塞尔 Kurt Russell (id:1031814)
       李截 Jason Scott Lee (id:1040585)
       詹森·艾萨克 Jason Isaacs (id:1017916)
       康妮·尼尔森 Connie Nielsen (id:1009298)
       西恩·帕特维 Sean Pertwee (id:1019082)
       Jared Thorne Jared Thorne (id:1159508)
       泰勒·索恩 Taylor Thorne (id:1159911)
       Mark Bringleson Mark Bringleson (id:1073293)
       加里·布塞 Gary Busey (id:1010573)
       詹姆斯·布莱克 James Black (id:1061908)
       弗拉基米尔·奥尔洛夫 Vladimir Orlov (id:1293626)
       卡尔斯腾·诺尔加拉德 Carsten Norgaard (id:1316318)
       迈克尔·切克利斯 Michael Chiklis (id:1049631)
       Elizabeth Dennehy Elizabeth Dennehy (id:1080812)
       麦克斯·丹尼尔斯 Max Daniels (id:1281790)
       保罗·斯凯勒 Paul Sklar (id:1297745)
       艾伦·克劳福德 Ellen Crawford (id:1326593)
       Conni Marie Brazelton Conni Marie Brazelton (id:1078652)
       Kyle Sullivan Kyle Sullivan (id:1155357)
       科宾·布鲁 Corbin Bleu (id:1031976)
       Danny Turner Danny Turner (id:1152290)
       萨拉·帕克斯顿 Sara Paxton (id:1047881)
       Elizabeth Huett Elizabeth Huett (id:1110698)
       贾内尔·吉恩斯特拉 Janelle Ginestra (id:1421152)
       杰西·里特约翰 Jesse Littlejohn (id:1123978)
       Jimmy Baker Jimmy Baker (id:1277736)
       怀亚特·拉塞尔 Wyatt Russell (id:1140515)
       杰里米·波特 Jeremy Bolt (id:1278922)
       Greg Stechman Greg Stechman (id:1001297)
       杰里米·波特 Jeremy Bolt (id:1278922)
       James G. Robinson James G. Robinson (id:1295819)
       R.J. Louis R.J. Louis (id:1290347)
       乔尔·麦克尼利 Joel McNeely (id:1276598)
       David Tattersall David Tattersall (id:1276576)
       明迪·马丁 Mindy Marin (id:1291003)
       Thomas Valentine Thomas Valentine (id:1299794)
       Erica Edell Phillips Erica Edell Phillips (id:1294458)
       史蒂夫·拉波特 Steve LaPorte (id:1289183)
       Mark Landon Mark Landon (id:1289362)
       大卫·R·艾里斯 David R. Ellis (id:1050082)
       Dennis Maguire Dennis Maguire (id:1290727)
       Katie Carroll Katie Carroll (id:1280171)
       埃德·琼斯 Ed Jones (id:1287861)
       Mark Spatny Mark Spatny (id:1298117)
       David Taritero David Taritero (id:1298923)
       Tex Kadonaga Tex Kadonaga (id:1287999)
       克莱格·巴朗 Craig Barron (id:1277981)
       托德·瓦兹里 Todd Vaziri (id:1299925)
       马克·安德烈·萨姆森 Marc-Andre Samson (id:1296592)
       布雷特·诺特卡特 Brett Northcutt (id:1293296)
       David Stump David Stump (id:1276361)
       Dominick Cecere Dominick Cecere (id:1305777)
       林凡  Van Ling (id:1290113)

◎简  介
  未来世界,为了赢得星际战争,政府从新生儿中严格挑选一批人,从小就进行杀人训练,这些人没有家庭、感情,他们眼中只有杀戮,称为兵人。特德(库尔特?拉塞尔 Kurt Russell 饰)就是这群人中的佼佼者,他经历了数场星际大战,依然屹立不倒。这次政府采用新的基因技术,让婴儿在母体中就接受战争基因的改造,制造了一批改良后的兵人。                                    
                                为了测试效果,特德和另外两名伙伴被挑选和新兵人凯恩(贾森?斯科特?李 Jason Scott Lee 饰)进行一场较量,结果两名伙伴被打死,而特德因为昏迷被误认为死亡而逃过一劫。他和另外两个伙伴的尸体被扔到了一个垃圾星球。特德在那里遇到了被遗弃的平民,他麻木的心灵在这里滋生了友谊和爱情。当他准备在这里和心爱的女人幸福过活时,政府将这里当成了新兵人的训练场。新兵人们在这里的任务就是杀光所有生物。为心爱的人和伙伴们,特德毅然出战!
  1. ##### MediaInfo ######
  2. General
  3. Unique ID                                : 134112411621516508470750846223506284380 (0x64E51C66EE11D021C6B2FDB0A4211F5C)
  4. Complete name                            : Soldier.1998.BluRay.1080p.x265.10bit.2Audio-MiniHD.mkv
  5. Format                                   : Matroska
  6. Format version                           : Version 4
  7. File size                                : 3.54 GiB
  8. Duration                                 : 1 h 38 min
  9. Overall bit rate                         : 5 136 kb/s
  10. Encoded date                             : UTC 2018-02-23 12:41:40
  11. Writing application                      : mkvmerge v20.0.0 ('I Am The Sun') 64-bit
  12. Writing library                          : libebml v1.3.5 + libmatroska v1.4.8
  13. Video
  14. ID                                       : 1
  15. Format                                   : HEVC
  16. Format/Info                              : High Efficiency Video Coding
  17. Format profile                           : Main 10@L4@Main
  18. Codec ID                                 : V_MPEGH/ISO/HEVC
  19. Duration                                 : 1 h 38 min
  20. Bit rate                                 : 3 754 kb/s
  21. Width                                    : 1 920 pixels
  22. Height                                   : 800 pixels
  23. Display aspect ratio                     : 2.40:1
  24. Frame rate mode                          : Constant
  25. Frame rate                               : 23.976 (24000/1001/53354) FPS
  26. Color space                              : YUV
  27. Chroma subsampling                       : 4:2:0
  28. Bit depth                                : 10 bits
  29. Bits/(Pixel*Frame)                       : 0.102
  30. Stream size                              : 2.59 GiB (73%)
  31. Writing library                          : x265 2.6+31-3712d13c09bf:[Windows][MSVC 1912][64 bit] 10bit
  32. Encoding settings                        : cpuid=533541173503 / frame-threads=3 / numa-pools=8 / wpp / no-pmode / no-pme / no-psnr / no-ssim / log-level=2 / csv / csv-log-level=0 / input-csp=1 / input-res=1920x800 / interlace=0 / total-frames=141860 / level-idc=0 / high-tier=1 / uhd-bd=0 / ref=5 / no-allow-non-conformance / no-repeat-headers / annexb / no-aud / no-hrd / info / hash=0 / no-temporal-layers / no-open-gop / min-keyint=1 / keyint=360 / gop-lookahead=0 / bframes=9 / b-adapt=2 / b-pyramid / bframe-bias=0 / rc-lookahead=60 / lookahead-slices=4 / NTMzNTQ=uuDQuD2mJt9fsCf / scenecut=40 / radl=0 / no-intra-refresh / ctu=32 / min-cu-size=8 / rect / no-amp / max-tu-size=16 / tu-inter-depth=2 / tu-intra-depth=2 / limit-tu=4 / rdoq-level=1 / dynamic-rd=0.00 / ssim-rd / signhide / no-tskip / nr-intra=0 / nr-inter=0 / no-constrained-intra / no-strong-intra-smoothing / max-merge=3 / limit-refs=2 / limit-modes / me=3 / subme=5 / merange=25 / temporal-mvp / weightp / weightb / no-analyze-src-pics / deblock=-1:-1 / no-sao / no-sao-non-deblock / rd=4 / no-early-skip / rskip / no-fast-intra / no-tskip-fast / no-cu-lossless / b-intra / no-splitrd-skip / rdpenalty=1 / psy-rd=0.00 / psy-rdoq=5.00 / no-rd-refine / no-lossless / cbqpoffs=-2 / crqpoffs=-2 / rc=crf / crf=19.0 / qcomp=0.70 / qpstep=4 / stats-write=0 / stats-read=0 / ipratio=1.40 / pbratio=1.30 / aq-mode=2 / aq-strength=0.80 / cutree / zone-count=0 / no-strict-cbr / qg-size=16 / no-rc-grain / qpmax=69 / qpmin=0 / no-const-vbv / sar=0 / overscan=0 / videoformat=5 / range=0 / colorprim=1 / transfer=2 / colormatrix=2 / chromaloc=0 / display-window=0 / max-cll=0,0 / min-luma=0 / max-luma=1023 / log2-max-poc-lsb=8 / vui-timing-info / vui-hrd-info / slices=1 / no-opt-qp-pps / no-opt-ref-list-length-pps / no-multi-pass-opt-rps / scenecut-bias=0.05 / no-opt-cu-delta-qp / no-aq-motion / no-hdr / no-hdr-opt / no-dhdr10-opt / analysis-reuse-level=5 / scale-factor=0 / refine-intra=0 / refine-inter=0 / refine-mv=0 / no-limit-sao / ctu-info=0 / no-lowpass-dct / refine-mv-type=0 / copy-pic=1
  33. Language                                 : Chinese
  34. Default                                  : Yes
  35. Forced                                   : No
  36. Color range                              : Limited
  37. Color primaries                          : BT.709
  38. Audio #1
  39. ID                                       : 5
  40. Format                                   : AC-3
  41. Format/Info                              : Audio Coding 3
  42. Commercial name                          : Dolby Digital
  43. Codec ID                                 : A_AC3
  44. Duration                                 : 1 h 38 min
  45. Bit rate mode                            : Constant
  46. Bit rate                                 : 640 kb/s
  47. Channel(s)                               : 6 channels
  48. Channel layout                           : L R C LFE Ls Rs
  49. Sampling rate                            : 48.0 kHz
  50. Frame rate                               : 31.250 FPS (1536 SPF)
  51. Compression mode                         : Lossy
  52. Stream size                              : 451 MiB (12%)
  53. Title                                    : 英语
  54. Language                                 : English
  55. Service kind                             : Complete Main
  56. Default                                  : No
  57. Forced                                   : No
  58. Audio #2
  59. ID                                       : 6
  60. Format                                   : AC-3
  61. Format/Info                              : Audio Coding 3
  62. Commercial name                          : Dolby Digital
  63. Codec ID                                 : A_AC3
  64. Duration                                 : 1 h 38 min
  65. Bit rate mode                            : Constant
  66. Bit rate                                 : 640 kb/s
  67. Channel(s)                               : 6 channels
  68. Channel layout                           : L R C LFE Ls Rs
  69. Sampling rate                            : 48.0 kHz
  70. Frame rate                               : 31.250 FPS (1536 SPF)
  71. Compression mode                         : Lossy
  72. Stream size                              : 451 MiB (12%)
  73. Title                                    : 上译国配
  74. Language                                 : Chinese
  75. Service kind                             : Complete Main
  76. Default                                  : Yes
  77. Forced                                   : No
  78. Text #1
  79. ID                                       : 2
  80. Format                                   : PGS
  81. Muxing mode                              : zlib
  82. Codec ID                                 : S_HDMV/PGS
  83. Codec ID/Info                            : Picture based subtitle format used on BDs/HD-DVDs
  84. Title                                    : 繁体
  85. Language                                 : Chinese
  86. Default                                  : Yes
  87. Forced                                   : No
  88. Text #2
  89. ID                                       : 3
  90. Format                                   : PGS
  91. Muxing mode                              : zlib
  92. Codec ID                                 : S_HDMV/PGS
  93. Codec ID/Info                            : Picture based subtitle format used on BDs/HD-DVDs
  94. Title                                    : 简体
  95. Language                                 : Chinese
  96. Default                                  : No
  97. Forced                                   : No
  98. Text #3
  99. ID                                       : 4
  100. Format                                   : PGS
  101. Muxing mode                              : zlib
  102. Codec ID                                 : S_HDMV/PGS
  103. Codec ID/Info                            : Picture based subtitle format used on BDs/HD-DVDs
  104. Title                                    : 英文
  105. Language                                 : English
  106. Default                                  : No
  107. Forced                                   : No
  108. Menu
  109. 00:00:00.000                             : en:Adam Project
  110. 00:04:32.481                             : en:Man of Wars
  111. 00:06:23.800                             : en:The New Breed
  112. 00:11:09.586                             : en:Battle Scars
  113. 00:15:15.665                             : en:Obsolete
  114. 00:17:16.869                             : en:Out with the Trash
  115. 00:19:28.209                             : en:The Landscape
  116. 00:22:37.690                             : en:The Decent Thing
  117. 00:25:45.753                             : en:Classified Hostiles
  118. 00:30:20.819                             : en:Daily Perils
  119. 00:35:01.057                             : en:Fear and Discipline
  120. 00:38:50.995                             : en:Intrusive Memories
  121. 00:40:47.612                             : en:Overreaction
  122. 00:43:33.194                             : en:Snake Mishandler
  123. 00:46:38.754                             : en:Out w/o the Trash
  124. 00:49:52.198                             : en:Lesson Learned
  125. 00:52:05.664                             : en:Death of a Hostile
  126. 00:57:11.928                             : en:Under Fire
  127. 01:00:04.559                             : en:Counterattack
  128. 01:02:50.684                             : en:Significant Presence
  129. 01:04:15.643                             : en:Kill Them All, Sir
  130. 01:06:41.831                             : en:Engaging the Enemy
  131. 01:08:32.275                             : en:Todd, Wind and Fire
  132. 01:12:57.915                             : en:Crawler Down
  133. 01:14:54.573                             : en:Collision Course
  134. 01:18:09.852                             : en:On a Short Fuse
  135. 01:21:32.971                             : en:One Last Battle
  136. 01:25:08.854                             : en:Those Left Behind
  137. 01:29:16.184                             : en:Death of a Planet
  138. 01:30:13.491                             : en:New Home in View
  139. 01:32:14.529                             : en:End Credits





此处一般会放置磁力链或种子下载链接,不过此链接需要注册会员才能看到,点击“立即注册”
磁力链下载【下载链接仅对注册会员开放,登陆后可见】
BT9527电影天堂 1、BT9527电影天堂提供的BT文件均来源于互联网抓取,只供网友学习交流、技术提升使用。
2、我们遵守BitTorrent点对点协议原则,任何版权问题请联系原资源发布商,我们不处理任何版权纠纷,谢谢!如有争议请联系邮箱:BT9527#hotmail.com(#换成@)
3、如果您发现某页面或地址有错误,请联系站长邮箱BT9527#hotmail.com(#换成@),我们会尽快处理。您的热心是对BT9527电影天堂最大的支持。
4、本站建议去正规影院观看电影以支持电影行业发展。
最新回复 (0)

你可以在 登录 or 注册 后,对此帖发表评论!

返回
发新帖