瞬息全宇宙[中文字幕].Everything.Everywhere.All.at.Once.2022.1080p.BluRay.x264.DTS-HD.MA.7.1-MT 20.16GB

版主小s 3月前 221

◎译 名 瞬息全宇宙 / 妈的多重宇宙(台) / 奇异女侠玩救宇宙(港) / 天马行空(新加坡) / 瞬息各处所有 / 全部世界同时一切

◎片 名 Everything Everywhere All at Once

◎年 代 2022

◎产 地 美国

◎类 别 喜剧 / 奇幻 / 冒险

◎语 言 英语 / 汉语普通话 / 粤语

◎上映日期 2022-03-11(西南偏南电影节) / 2022-03-25(美国)

◎IMDb链接 https://www.imdb.com/title/tt6710474/

◎豆瓣评分 7.7/10 (316209人评价)

◎豆瓣链接 https://movie.douban.com/subject/30314848/

◎片 长 139分钟

◎导 演 关家永 Dan Kwan (id:1356396)

丹尼尔·施纳特 Daniel Scheinert (id:1356397)

◎编 剧 关家永 Dan Kwan (id:1356396)

丹尼尔·施纳特 Daniel Scheinert (id:1356397)

◎演 员 杨紫琼 Michelle Yeoh (id:1022664)

许玮伦 Stephanie Hsu (id:1356993)

关继威 Jonathan Ke Quan (id:1022565)

吴汉章 James Hong (id:1031824)

杰米·李·柯蒂斯 Jamie Lee Curtis (id:1041127)

塔丽·梅德尔 Tallie Medel (id:1353816)

珍妮·斯蕾特 Jenny Slate (id:1230973)

岑勇康 Harry Shum Jr. (id:1044718)

比夫·威夫 Biff Wiff (id:1469370)

布莱恩·勒 Brian Le (id:1456759)

安迪·黎 Andy Le (id:1456768)

李静 Li Jing (id:1472047)

苏妮特·玛尼 Sunita Mani (id:1366880)

阿隆·拉扎尔 Aaron Lazar (id:1343713)

切尔西·戈德史密斯 Chelsey Goldsmith (id:1469371)

克雷格·亨宁森 Craig Henningsen (id:1229199)

安东尼·莫利纳利 Anthony Molinari (id:1045545)

丹·布朗 Dan Brown (id:1181319)

帕努瓦特·安东尼·纳纳肯帕诺姆 Panuvat Anthony Nanakornpanom (id:1309119)

卡拉·玛丽·乔尔简 Cara Marie Chooljian (id:1469372)

兰达尔·阿切尔 Randall Archer (id:1351135)

埃夫卡·科瓦拉西尤斯 Efka Kvaraciejus (id:1331229)

奥德丽·瓦西莱夫斯基 Audrey Wasilewski (id:1328955)

布恩·平考 Boon Pin Koh (id:1377199)

蒂莫西·尤里齐 Timothy Eulich (id:1356398)

丹尼尔·施纳特 Daniel Scheinert (id:1356397)

西协美智子 Michiko Nishiwaki (id:1041987)

蒂莫西·斯科特·拉尔斯顿 Timothy Scott Ralston (id:1148643)

兰迪·纽曼 Randy Newman (id:1036596)

纳拉亚纳·卡布拉尔 Narayana Cabral (id:1471986)

D.Y. Sao D.Y. Sao (id:1239718)

关家永 Dan Kwan (id:1356396)

安东尼·罗素 Anthony Russo (id:1321812)

乔·罗素 Joe Russo (id:1320870)

迈克·拉罗卡 Mike Larocca (id:1452625)

关家永 Dan Kwan (id:1356396)

丹尼尔·施纳特 Daniel Scheinert (id:1356397)

杨紫琼 Michelle Yeoh (id:1022664)

萨拉·芬兰 Sarah Finn (id:1283741)

托德·马库拉思 Todd Makurath (id:1452633)

王庆 Jonathan Wang (id:1472372)

Son Lux (id:1472333)

拉金·赛普尔 Larkin Seiple (id:1472371)

萨拉·芬兰 Sarah Finn (id:1283741)

Shirley Kurata (id:1472399)

◎简 介

55岁的美国华裔移民伊芙琳(杨紫琼 饰)家庭事业两崩溃。在老父亲生日大寿这天,除了要阻止女儿(许玮伦 饰)暴走出柜、替无用丈夫(关继威 饰)擦屁股,还得去税务局向古板大婶(杰米·李·柯蒂斯 饰)解释不太妙的税务问题。才踏进大楼电梯,软烂丈夫竟摇身一变演起黑客帝国,声称自己是另一个宇宙的版本,而秀莲也是千万宇宙里的其中一个。还来不及理解,邪恶势力已在多元宇宙中蔓延,世界即将毁灭,只有在这个宇宙里,“一无是处”的伊芙琳才能拯救世界……

  1. Video

  2. ID : 1

  3. Format : AVC

  4. Format/Info : Advanced Video Codec

  5. Format profile : High@L4.1

  6. Format settings : CABAC / 4 Ref Frames

  7. Format settings, CABAC : Yes

  8. Format settings, Reference frames : 4 frames

  9. Codec ID : V_MPEG4/ISO/AVC

  10. Duration : 2 h 19 min

  11. Bit rate : 16.6 Mb/s

  12. Width : 1 920 pixels

  13. Height : 1 038 pixels

  14. Display aspect ratio : 1.85:1

  15. Frame rate mode : Constant

  16. Frame rate : 23.976 (24000/1001/53354) FPS

  17. Color space : YUV

  18. Chroma subsampling : 4:2:0

  19. Bit depth : 8 bits

  20. Scan type : Progressive

  21. Bits/(Pixel*Frame) : 0.346

  22. Stream size : 16.1 GiB (80%)

  23. Writing library : x264 core 157 r2938 2b00a84 TnP@MTeam Mod

  24. Encoding settings : cabac=1 / ref=4 / deblock=1:-3:-3 / analyse=0x3:0x133 / me=umh / subme=10 / psy=1 / psy_rd=1.05:0.00 / mixed_ref=1 / me_range=32 / chroma_me=1 / trellis=2 / 8x8dct=1 / cqm=0 / deadzone=21,11 / fast_pskip=0 / chroma_qp_offset=-2 / threads=12 / lookahead_threads=2 / sliced_threads=0 / nr=0 / decimate=0 / interlaced=0 / NTMzNTQ= / bluray_compat=0 / constrained_intra=0 / bframes=8 / b_pyramid=2 / b_adapt=2 / b_bias=0 / direct=3 / weightb=1 / open_gop=0 / weightp=2 / keyint=250 / keyint_min=24 / NTMzNTQ=uuDQuD2mJt9fsCf / scenecut=40 / intra_refresh=0 / rc_lookahead=250 / rc=crf / mbtree=0 / crf=16.8 / qcomp=0.60 / qpmin=0 / qpmax=69 / qpstep=4 / vbv_maxrate=62500 / vbv_bufsize=78125 / crf_max=0.0 / nal_hrd=none / filler=0 / NTMzNTQ=LmsMAP37EqsCpk / ip_ratio=1.30 / pb_ratio=1.20 / aq=3:0.80

  25. Language : English

  26. Default : Yes

  27. Forced : No

  28. Color range : Limited

  29. Color primaries : BT.709

  30. Matrix coefficients : BT.709


  31. Audio

  32. ID : 2

  33. Format : DTS XLL

  34. Format/Info : Digital Theater Systems

  35. Commercial name : DTS-HD Master Audio

  36. Codec ID : A_DTS

  37. Duration : 2 h 19 min

  38. Bit rate mode : Variable

  39. Bit rate : 4 087 kb/s

  40. Channel(s) : 8 channels

  41. Channel layout : C L R LFE Lb Rb Lss Rss

  42. Sampling rate : 48.0 kHz

  43. Frame rate : 93.750 FPS (512 SPF)

  44. Bit depth : 24 bits

  45. Compression mode : Lossless

  46. Stream size : 3.98 GiB (20%)

  47. Language : English

  48. Default : Yes

  49. Forced : No


  50. Text #1

  51. ID : 3

  52. Format : UTF-8

  53. Codec ID : S_TEXT/UTF8

  54. Codec ID/Info : UTF-8 Plain Text

  55. Duration : 2 h 10 min

  56. Bit rate : 43 b/s

  57. Count of elements : 1442

  58. Stream size : 41.4 KiB (0%)

  59. Language : English

  60. Default : Yes

  61. Forced : No


  62. Text #2

  63. ID : 4

  64. Format : UTF-8

  65. Codec ID : S_TEXT/UTF8

  66. Codec ID/Info : UTF-8 Plain Text

  67. Duration : 2 h 15 min

  68. Bit rate : 60 b/s

  69. Count of elements : 2093

  70. Stream size : 60.4 KiB (0%)

  71. Title : SDH

  72. Language : English

  73. Default : No

  74. Forced : No


  75. Text #3

  76. ID : 5

  77. Format : PGS

  78. Muxing mode : zlib

  79. Codec ID : S_HDMV/PGS

  80. Codec ID/Info : Picture based subtitle format used on BDs/HD-DVDs

  81. Duration : 2 h 15 min

  82. Bit rate : 39.2 kb/s

  83. Count of elements : 4244

  84. Stream size : 38.0 MiB (0%)

  85. Language : English

  86. Default : No

  87. Forced : No


  88. Text #4

  89. ID : 6

  90. Format : PGS

  91. Muxing mode : zlib

  92. Codec ID : S_HDMV/PGS

  93. Codec ID/Info : Picture based subtitle format used on BDs/HD-DVDs

  94. Duration : 2 h 15 min

  95. Bit rate : 39.2 kb/s

  96. Count of elements : 4244

  97. Stream size : 38.0 MiB (0%)

  98. Title : SDH

  99. Language : English

  100. Default : No

  101. Forced : No


  102. Text #5

  103. ID : 7

  104. Format : PGS

  105. Muxing mode : zlib

  106. Codec ID : S_HDMV/PGS

  107. Codec ID/Info : Picture based subtitle format used on BDs/HD-DVDs

  108. Duration : 2 h 17 min

  109. Bit rate : 31.0 kb/s

  110. Count of elements : 3428

  111. Stream size : 30.5 MiB (0%)

  112. Title : Latin American

  113. Language : Spanish

  114. Default : No

  115. Forced : No


  116. Text #6

  117. ID : 8

  118. Format : PGS

  119. Muxing mode : zlib

  120. Codec ID : S_HDMV/PGS

  121. Codec ID/Info : Picture based subtitle format used on BDs/HD-DVDs

  122. Duration : 2 h 17 min

  123. Bit rate : 27.5 kb/s

  124. Count of elements : 3446

  125. Stream size : 27.1 MiB (0%)

  126. Title : Traditional

  127. Language : Chinese

  128. Default : No

  129. Forced : No


  130. Menu

  131. 00:00:00.000 : en:Chapter 01

  132. 00:07:05.050 : en:Chapter 02

  133. 00:11:45.705 : en:Chapter 03

  134. 00:24:55.327 : en:Chapter 04

  135. 00:32:52.262 : en:Chapter 05

  136. 00:42:08.109 : en:Chapter 06

  137. 00:52:26.602 : en:Chapter 07

  138. 01:01:51.625 : en:Chapter 08

  139. 01:10:27.974 : en:Chapter 09

  140. 01:17:09.041 : en:Chapter 10

  141. 01:25:09.104 : en:Chapter 11

  142. 01:31:54.509 : en:Chapter 12

  143. 01:39:50.818 : en:Chapter 13

  144. 01:51:25.679 : en:Chapter 14

  145. 01:59:09.142 : en:Chapter 15

  146. 02:10:08.467 : en:Chapter 16

复制代码

  


磁力链:
  • magnet:?xt=urn:btih:D75CD20AAFF77AAE0E75C17D9230FD8C7B5F7E47
上传的附件:
BT9527电影天堂 1、BT9527电影天堂提供的BT文件均来源于互联网抓取,只供网友学习交流、技术提升使用。
2、我们遵守BitTorrent点对点协议原则,任何版权问题请联系原资源发布商,我们不处理任何版权纠纷,谢谢!如有争议请联系邮箱:BT9527#hotmail.com(#换成@)
3、如果您发现某页面或地址有错误,请联系站长邮箱BT9527#hotmail.com(#换成@),我们会尽快处理。您的热心是对BT9527电影天堂最大的支持。
4、本站建议去正规影院观看电影以支持电影行业发展。
最新回复 (0)

你可以在 登录 or 注册 后,对此帖发表评论!

返回
发新帖