天才不能承受之重[简体字幕].The.Unbearable.Weight.of.Massive.Talent.2022.1080p.BluRay.x265.10bit-HomeHD 6.06GB

版主小s 3月前 242

✔资源类型:暂未分类   ✔电影年份:2022   ✔电影地区:欧美   ✔电影分类:喜剧

◎译  名 天才不能承受之重 / 超重天才 / 超吉任务(台) / 丧尽癫才(港) / 天才无法承受之重 / 不能承受的天才之重
◎片  名 The Unbearable Weight of Massive Talent
◎年  代 2022
◎产  地 美国
◎类  别 喜剧 / 动作 / 惊悚 / 犯罪
◎语  言 英语
◎上映日期 2022-03-12(西南偏南电影节) / 2022-04-22(美国)
◎IMDb链接 https://www.imdb.com/title/tt11291274/
◎豆瓣评分 7.0/10 (17473人评价)
◎豆瓣链接 https://movie.douban.com/subject/34890458/
◎片  长 107分钟
◎导  演 汤姆·戈米肯 Tom Gormican (id:1337274)
◎编  剧 汤姆·戈米肯 Tom Gormican (id:1337274)
       凯文·埃滕 Kevin Etten  (id:1470955)
◎演  员 尼古拉斯·凯奇 Nicolas Cage (id:1054455)
       佩德罗·帕斯卡 Pedro Pascal (id:1329628)
       蒂凡尼·哈迪斯 Tiffany Haddish (id:1194813)
       莎朗·豪根 Sharon Horgan (id:1305370)
       帕科·莱昂 Paco León (id:1028211)
       尼尔·帕特里克·哈里斯 Neil Patrick Harris (id:1017896)
       莉莉·莫·辛 Lily Mo Sheen (id:1004937)
       亚历桑德拉·马斯特罗纳迪 Alessandra Mastronardi (id:1199222)
       雅各布·西皮奥 Jacob Scipio (id:1426522)
       卡特琳·万科娃 Katrin Vankova  (id:1470956)
       黛米·摩尔 Demi Moore (id:1047988)
       安娜·麦克唐纳 Anna MacDonald  (id:1470957)
       大卫·戈登·格林 David Gordon Green (id:1000217)
       伊克·巴里霍尔兹 Ike Barinholtz (id:1004936)
       卢克·麦昆 Luke McQueen  (id:1470958)
       乔安娜·波宾 Joanna Bobin (id:1449107)
       曼纽尔陶勒 Manuel Tallafé (id:1342635)
       里卡德·巴拉达 Ricard Balada (id:1454965)
       杰米·奥多尼斯 Jaime Ordó?ez (id:1377606)
       丽贝卡·芬奇 Rebecca Finch (id:1465426)
       卡罗琳·博尔顿 Caroline Boulton (id:1367467)
       比约恩·弗赖贝格 Bj?rn Freiberg (id:1409305)
       艾丽·简 Eli Jane (id:1327291)
       哈里·陶乐西 Harry Taurasi (id:1452066)
       András Korcsmáros András Korcsmáros (id:1198072)
       尼克·威特曼 Nick Wittman (id:1415466)
       帕科·德尔加多 Paco Delgado (id:1326166)

◎简  介
  尼古拉斯·凯奇(Nicolas Cage)有新片了,这次他要在电影里演自己。                                       
                                    该片主角就是尼古拉斯·凯奇本人,他疯狂的渴望在昆汀·塔伦蒂诺的下部电影里得到一个角色,他经常会和自己脑海中一个90年代的自己对话,后者不断吐槽他“老是接烂片”、“再也不是当年那个电影明星”了。                                       
                                    讲述破产边缘的凯奇为了100万美元的酬劳去参加一个亿万富翁粉丝(佩德罗·帕斯卡 饰)的生日派对,但这位富豪是一个危险的毒枭。当凯奇被一名CIA特工招募后,事情发生了意想不到的转变,为了拯救自己和亲人,他被迫出演一个终生难忘的角色——尼古拉斯·凯奇,用他最具标志性和最受喜爱的银幕角色来履行自己的传奇人生。                                       
                                    《才华不能承受之重》会有多个桥段向凯奇的代表作致敬,包括《离开拉斯维加斯》(Leaving Las Vegas)、《变脸》(Face-Off)、《极速60秒》(Gone in 60 ...
  1. ##### MediaInfo ######
  2. General
  3. Unique ID                                : 205772467911196420889687755721571857180 (0x9ACE55F4E553AFC2BD071FA8794C731C)
  4. Complete name                            : The.Unbearable.Weight.of.Massive.Talent.2022.1080p.BluRay.x265.10bit-HomeHD.mkv
  5. Format                                   : Matroska
  6. Format version                           : Version 1
  7. File size                                : 6.06 GiB
  8. Duration                                 : 1 h 46 min
  9. Overall bit rate                         : 8 124 kb/s
  10. Encoded date                             : UTC 2022-06-19 14:16:26
  11. Writing application                      : mkvmerge v2.2.0 ('Turn It On Again') built on Mar  4 2008 13:20:25
  12. Writing library                          : libebml v0.7.7 + libmatroska v0.8.1
  13. Attachments                              : MSYH.TTF / MSYH_chscht.ttf / MSYHBD.TTF / tahoma.ttf
  14. Video
  15. ID                                       : 1
  16. Format                                   : HEVC
  17. Format/Info                              : High Efficiency Video Coding
  18. Format profile                           : Main 10@L4@Main
  19. Codec ID                                 : V_MPEGH/ISO/HEVC
  20. Duration                                 : 1 h 46 min
  21. Bit rate                                 : 7 322 kb/s
  22. Width                                    : 1 920 pixels
  23. Height                                   : 800 pixels
  24. Display aspect ratio                     : 2.40:1
  25. Frame rate mode                          : Constant
  26. Frame rate                               : 23.976 (24000/1001/53354) FPS
  27. Color space                              : YUV
  28. Chroma subsampling                       : 4:2:0
  29. Bit depth                                : 10 bits
  30. Bits/(Pixel*Frame)                       : 0.199
  31. Stream size                              : 5.47 GiB (90%)
  32. Default                                  : Yes
  33. Forced                                   : No
  34. Audio
  35. ID                                       : 2
  36. Format                                   : AC-3
  37. Format/Info                              : Audio Coding 3
  38. Commercial name                          : Dolby Digital
  39. Codec ID                                 : A_AC3
  40. Duration                                 : 1 h 46 min
  41. Bit rate mode                            : Constant
  42. Bit rate                                 : 640 kb/s
  43. Channel(s)                               : 6 channels
  44. Channel layout                           : L R C LFE Ls Rs
  45. Sampling rate                            : 48.0 kHz
  46. Frame rate                               : 31.250 FPS (1536 SPF)
  47. Compression mode                         : Lossy
  48. Stream size                              : 489 MiB (8%)
  49. Title                                    : 英语
  50. Language                                 : English
  51. Service kind                             : Complete Main
  52. Default                                  : Yes
  53. Forced                                   : No
  54. Statistics Tags Issue                    : mkvmerge v67.0.0 ('Under Stars') 64-bit 2022-06-19 04:43:47 / mkvmerge v2.2.0 ('Turn It On Again') built on Mar  4 2008 13:20:25 2022-06-19 14:16:26
  55. FromStats_BitRate                        : 640000
  56. FromStats_Duration                       : 01:46:49.792000000
  57. FromStats_FrameCount                     : 200306
  58. FromStats_StreamSize                     : 512783360
  59. Text
  60. ID                                       : 3
  61. Format                                   : ASS
  62. Codec ID                                 : S_TEXT/ASS
  63. Codec ID/Info                            : Advanced Sub Station Alpha
  64. Compression mode                         : Lossless
  65. Title                                    : chs
  66. Language                                 : Chinese
  67. Default                                  : Yes
  68. Forced                                   : No





此处一般会放置磁力链或种子下载链接,不过此链接需要注册会员才能看到,点击“立即注册”
磁力链下载【下载链接仅对注册会员开放,登陆后可见】
BT9527电影天堂 1、BT9527电影天堂提供的BT文件均来源于互联网抓取,只供网友学习交流、技术提升使用。
2、我们遵守BitTorrent点对点协议原则,任何版权问题请联系原资源发布商,我们不处理任何版权纠纷,谢谢!如有争议请联系邮箱:BT9527#hotmail.com(#换成@)
3、如果您发现某页面或地址有错误,请联系站长邮箱BT9527#hotmail.com(#换成@),我们会尽快处理。您的热心是对BT9527电影天堂最大的支持。
4、本站建议去正规影院观看电影以支持电影行业发展。
最新回复 (1)
  • lrs6435 3月前
    2
    他,终于还完钱啦

你可以在 登录 or 注册 后,对此帖发表评论!

返回
发新帖