魔兽战场[中文字幕].Outlander.2008.1080p.BluRay.DTS.x265-10bit-ENTHD 7.32GB

版主小s 3月前 238

✔资源类型:暂未分类   ✔电影年份:2008   ✔电影地区:欧美   ✔电影分类:动作

◎译  名 魔兽战场 / 越空魔龙 / 魔幻战场 / 外乡人
◎片  名 Outlander
◎年  代 2008
◎产  地 美国 / 德国
◎类  别 动作 / 科幻 / 冒险
◎语  言 英语 / 古诺尔斯语 / 拉丁语
◎上映日期 2008-07-11(拉托维亚)
◎IMDb链接 https://www.imdb.com/title/tt0462465/
◎豆瓣评分 5.9/10 (10393人评价)
◎豆瓣链接 https://movie.douban.com/subject/2049689/
◎片  长 115分钟
◎导  演 霍华德·麦凯恩 Howard McCain (id:1327580)
◎编  剧 德克·布莱克曼 Dirk Blackman (id:1327581)
       霍华德·麦凯恩 Howard McCain (id:1327580)
◎演  员 吉姆·卡维泽 Jim Caviezel (id:1027807)
       索菲娅·迈尔斯 Sophia Myles (id:1031869)
       杰克·休斯顿 Jack Huston (id:1036445)
       约翰·赫特 John Hurt (id:1004587)
       Cliff Saunders Cliff Saunders (id:1442406)
       艾丹·迪瓦恩 Aidan Devine (id:1282326)
       朗·普尔曼 Ron Perlman (id:1002688)
       詹姆斯·普雷斯顿·罗杰斯 James Preston Rogers (id:1229097)
       莫拉利亚·奥斯丁 Mauralea Austin (id:1447264)
       泰德·路德齐克 Ted Ludzik (id:1032616)
       Liam McNamara Liam McNamara (id:1117216)
       西蒙·诺斯伍德 Simon Northwood (id:1132999)
       托德·施罗德 Todd Schroeder (id:1139492)
       Drakaina Drakaina (id:1212690)
       Michael Ray Fox Michael Ray Fox (id:1187855)
        J. William Grantham (id:1251241)
       里卡多·霍约斯 Ricardo Hoyos (id:1236720)
       Amy Kerr Amy Kerr (id:1105909)
       Colette Stevenson Colette Stevenson (id:1315914)
       贝利·莫恩 Bailey Maughan (id:1465001)
       Iain McCaig Iain McCaig (id:1033148)
       唐·卡莫迪 Don Carmody (id:1280114)
       奇亚杰姆 Kia Jam (id:1005652)
       巴里·M·奥斯本 Barrie M. Osborne (id:1005225)
       Omar McClinton Omar McClinton (id:1012810)
       克里斯·罗伯茨 Chris Roberts (id:1147018)
       吉奥夫·赞里 Geoff Zanelli (id:1028419)
       皮埃尔·吉尔 Pierre Gill (id:1276535)
       Deirdre Bowen Deirdre Bowen (id:1279088)
       安斯曼·普拉萨德 Anshuman Prasad (id:1307833)
       黛布拉·汉森 Debra Hanson (id:1427790)
       Allan Cooke Allan Cooke (id:1071791)
       Paul Jones Paul Jones (id:1113435)
       Patrick Baxter Patrick Baxter (id:1208664)
       Louise Mackintosh Louise Mackintosh (id:1290637)
       Raymond Mackintosh Raymond Mackintosh (id:1290662)
       大卫·A·阿姆斯特朗 David A. Armstrong (id:1276205)
       Pierre Henry Pierre Henry (id:1101749)
       尼古拉·博杜克 Nicolas Bolduc (id:1033155)
       特拉维斯·鲍曼 Travis Baumann (id:1048779)
       Jeff Campbell Jeff Campbell (id:1055630)
        Rodrigo Santos (id:1254388)
       Shervin Shoghian Shervin Shoghian (id:1305826)
       詹姆斯·蒂奇诺 James Tichenor (id:1299249)
       托尼·马加莱塔 Tony Magaletta (id:1124827)
        Anuj Patil (id:1253665)
       乔尔·斯基特 Joel Skeete (id:1297734)
       Ryan Cronin Ryan Cronin (id:1164175)
       Bojan Zoric Bojan Zoric (id:1172071)
       Bruce A. Hutchison Bruce A. Hutchison (id:1189210)
        Artin Aryaei (id:1221853)
       福尔图纳托·弗拉塔西奥 Fortunato Frattasio (id:1052531)
       Mark Fordham Mark Fordham (id:1305949)
       Peter Hartwig Peter Hartwig (id:1038976)
       Romain Bayle Romain Bayle (id:1310674)
       Norm Stangl Norm Stangl (id:1003047)
       Ulo Greer Ulo Greer (id:1194693)

◎简  介
  西元709年,外星人凯坦(James Caviezel 饰)驾驶的飞船坠毁在挪威境内,同伴重伤死亡,飞船损毁,沉入湖底。凯坦凭借随身携带的先进机器掌握了地球的知识和当地的语言,在森林内游荡之际,他遇到了维京人乌弗里克(Jack Huston 杰克?休斯顿 饰),并随之回到了村庄。                                    
                                凯坦告诉维京人自己正在寻找一头“恶龙”,而这条恶龙正是他飞船上的一只怪兽,因飞船坠毁逃遁。维京人起初认为凯坦是个说大话的骗子,但随着村民一个个离奇消失,他们才发现所谓的“恶龙”真的存在……
  1. ##### MediaInfo ######
  2. General
  3. Unique ID                                : 149863178000980527844632348280119049637 (0x70BE99241D4A7E97A399059D0FE33DA5)
  4. Complete name                            : Outlander.2008.1080p.BluRay.DTS.x265-10bit-ENTHD.mkv
  5. Format                                   : Matroska
  6. Format version                           : Version 4
  7. File size                                : 7.32 GiB
  8. Duration                                 : 1 h 54 min
  9. Overall bit rate                         : 9 110 kb/s
  10. Movie name                               : Outlander 2008 1080p BluRay DTS x265-10bit-HDS
  11. Encoded date                             : UTC 2022-06-19 00:46:04
  12. Writing application                      : mkvmerge v68.0.0 ('The Curtain') 64-bit
  13. Writing library                          : libebml v1.4.2 + libmatroska v1.6.4 / Lavf59.17.101
  14. Video
  15. ID                                       : 1
  16. Format                                   : HEVC
  17. Format/Info                              : High Efficiency Video Coding
  18. Format profile                           : Main 10@L5.1@High
  19. Codec ID                                 : V_MPEGH/ISO/HEVC
  20. Duration                                 : 1 h 54 min
  21. Bit rate                                 : 7 591 kb/s
  22. Width                                    : 1 920 pixels
  23. Height                                   : 816 pixels
  24. Display aspect ratio                     : 2.35:1
  25. Frame rate mode                          : Constant
  26. Frame rate                               : 24.000 FPS
  27. Color space                              : YUV
  28. Chroma subsampling                       : 4:2:0
  29. Bit depth                                : 10 bits
  30. Bits/(Pixel*Frame)                       : 0.202
  31. Stream size                              : 6.10 GiB (83%)
  32. Title                                    : GalenMao@HDSky
  33. Default                                  : No
  34. Forced                                   : No
  35. Audio
  36. ID                                       : 2
  37. Format                                   : DTS
  38. Format/Info                              : Digital Theater Systems
  39. Codec ID                                 : A_DTS
  40. Duration                                 : 1 h 54 min
  41. Bit rate mode                            : Constant
  42. Bit rate                                 : 1 509 kb/s
  43. Channel(s)                               : 6 channels
  44. Channel layout                           : C L R Ls Rs LFE
  45. Sampling rate                            : 48.0 kHz
  46. Frame rate                               : 93.750 FPS (512 SPF)
  47. Bit depth                                : 24 bits
  48. Compression mode                         : Lossy
  49. Stream size                              : 1.21 GiB (17%)
  50. Title                                    : English
  51. Language                                 : English
  52. Default                                  : Yes
  53. Forced                                   : No
  54. Text #1
  55. ID                                       : 3
  56. Format                                   : PGS
  57. Muxing mode                              : zlib
  58. Codec ID                                 : S_HDMV/PGS
  59. Codec ID/Info                            : Picture based subtitle format used on BDs/HD-DVDs
  60. Duration                                 : 1 h 45 min
  61. Bit rate                                 : 8 381 b/s
  62. Count of elements                        : 1274
  63. Stream size                              : 6.32 MiB (0%)
  64. Title                                    : CHS
  65. Language                                 : Chinese
  66. Default                                  : Yes
  67. Forced                                   : No
  68. Text #2
  69. ID                                       : 4
  70. Format                                   : PGS
  71. Muxing mode                              : zlib
  72. Codec ID                                 : S_HDMV/PGS
  73. Codec ID/Info                            : Picture based subtitle format used on BDs/HD-DVDs
  74. Duration                                 : 1 h 50 min
  75. Bit rate                                 : 6 962 b/s
  76. Count of elements                        : 1355
  77. Stream size                              : 5.50 MiB (0%)
  78. Title                                    : CHS
  79. Language                                 : Chinese
  80. Default                                  : Yes
  81. Forced                                   : No
  82. Menu
  83. 00:00:00.000                             : en:第 01 章
  84. 00:09:29.542                             : en:第 02 章
  85. 00:15:59.333                             : en:第 03 章
  86. 00:20:44.750                             : en:第 04 章
  87. 00:26:47.458                             : en:第 05 章
  88. 00:31:48.250                             : en:第 06 章
  89. 00:38:37.542                             : en:第 07 章
  90. 00:47:05.250                             : en:第 08 章
  91. 00:59:08.125                             : en:第 09 章
  92. 01:04:46.667                             : en:第 10 章
  93. 01:12:30.458                             : en:第 11 章
  94. 01:20:43.792                             : en:第 12 章
  95. 01:27:20.000                             : en:第 13 章
  96. 01:34:24.625                             : en:第 14 章
  97. 01:44:16.417                             : en:第 15 章
  98. 01:50:59.625                             : en:第 16 章





此处一般会放置磁力链或种子下载链接,不过此链接需要注册会员才能看到,点击“立即注册”
磁力链下载【下载链接仅对注册会员开放,登陆后可见】
BT9527电影天堂 1、BT9527电影天堂提供的BT文件均来源于互联网抓取,只供网友学习交流、技术提升使用。
2、我们遵守BitTorrent点对点协议原则,任何版权问题请联系原资源发布商,我们不处理任何版权纠纷,谢谢!如有争议请联系邮箱:BT9527#hotmail.com(#换成@)
3、如果您发现某页面或地址有错误,请联系站长邮箱BT9527#hotmail.com(#换成@),我们会尽快处理。您的热心是对BT9527电影天堂最大的支持。
4、本站建议去正规影院观看电影以支持电影行业发展。
最新回复 (0)

你可以在 登录 or 注册 后,对此帖发表评论!

返回
发新帖