暗夜博士:莫比亚斯[简繁英字幕].Morbius.2022.UHD.BluRay.2160p.TrueHD.Atmos.7.1.x265.10bit.HDR-ALT 14.58GB

版主小s 10天前 64

✔资源类型:BD-4K   ✔电影年份:2022   ✔电影地区:欧美   ✔电影分类:动作

◎译  名 暗夜博士:莫比亚斯 / 莫比亚斯 / 魔比煞(港) / 魔比斯(台) / 莫比亚斯:暗夜博士 / 吸血鬼莫比亚斯 / Morbius the Living Vampire
◎片  名 Morbius
◎年  代 2022
◎产  地 美国
◎类  别 动作 / 科幻 / 惊悚 / 恐怖 / 冒险
◎语  言 英语 / 西班牙语 / 俄语
◎上映日期 2022-04-01(美国)
◎IMDb链接 https://www.imdb.com/title/tt5108870/
◎豆瓣评分 5.7/10 (28384人评价)
◎豆瓣链接 https://movie.douban.com/subject/27199850/
◎片  长 104分钟
◎导  演 丹尼尔·伊斯皮诺萨 Daniel Espinosa (id:1000735)
◎编  剧 马特·萨兹马 Matt Sazama (id:1340742)
       伯克·沙普利斯 Burk Sharpless (id:1340743)
       罗伊·托马斯 Roy Thomas (id:1042277)
       吉尔·凯恩 Gil Kane (id:1112670)
◎演  员 杰瑞德·莱托 Jared Leto (id:1013764)
       马特·史密斯 Matt Smith (id:1197648)
       阿德里娅·阿霍纳 Adria Arjona (id:1348880)
       杰瑞德·哈里斯 Jared Harris (id:1049700)
       泰瑞斯·吉布森 Tyrese Gibson (id:1010486)
       艾尔·马德里加尔 Al Madrigal (id:1433413)
       迈克尔·基顿 Michael Keaton (id:1049486)
       查理·肖特韦尔 Charlie Shotwell (id:1363353)
       汤姆·福布斯 Tom Forbes (id:1434668)
       克拉拉·罗萨杰 Clara Rosager (id:1411126)
       克里·约翰逊 Corey Johnson (id:1045054)
       宾利·卡鲁 Bentley Kalu (id:1340239)
       阿奇·雷诺 Archie Renaux (id:1426494)
       乔乔·马卡里 Jojo Macari (id:1419156)
       亚伯拉罕·波波拉 Abraham Popoola (id:1457672)
       巴里·艾尔德 Barry Aird (id:1368194)
       克里斯·雷曼 Chris Ryman (id:1192122)
       马诺伊·阿南德 Manoj Anand (id:1395012)
       卡德罗莎·奥娜·卡罗尔  (id:1459808)
       露丝·霍洛克斯 Ruth Horrocks (id:1397361)
       贝恩·科拉科 Bern Colla?o (id:1394212)
       丹尼尔·厄根 Daniel Eghan (id:1367202)
       菲利普·加斯科因 Philip Gascoyne (id:1443992)
       通恰伊·古奈什 Tuncay Gunes (id:1391308)
       豪尔赫·莱昂·马丁内斯 Jorge Leon Martinez (id:1340070)
       尼克·欧文福特 Nick Owenford (id:1362807)
       贾格·帕特尔 Jag Patel (id:1392994)
       黛博拉·洛克 Deborah Rock (id:1395006)
       阿图尔·夏尔马 Atul Sharma (id:1397360)
       戴维娜·西塔拉姆 Davina Sitaram (id:1407303)
       吉米·斯达 Jimmy Star (id:1273873)
       斯图尔特·惠兰 Stuart Whelan (id:1447200)
       亚当·柯林斯 Adam Collins (id:1413373)
       迪索·拉莫斯 Diezel Ramos (id:1341036)
       J·K·西蒙斯 J.K. Simmons (id:1147911)
       伊斯雷尔·鲁兹 Israel Ruiz (id:1199375)
       辛迪·埃文斯 Cindy Evans (id:1427039)

◎简  介
  《暗夜博士:莫比亚斯》将首次把漫威宇宙中最另类的暗黑超级英雄莫比亚斯呈现于大银幕。由奥斯卡最佳男配得主杰瑞德·莱托饰演的莫比亚斯博士身患一种罕见的血液疾病,命不久矣的他决心找到治疗方法拯救其他同病患者。为此,他孤注一掷试图根除疾病。一开始一切似乎都成功了,但他的内心深处有一股黑暗却无端释放。善念能否压制住邪恶,还是莫比亚斯会屈服于这神秘的欲望?
  1. ##### MediaInfo ######
  2. General
  3. Unique ID                                : 28544370067963267611296260408631321782 (0x15797219C5BE29F5B76DFCD3310764B6)
  4. Complete name                            : Morbius.2022.UHD.BluRay.2160p.TrueHD.Atmos.7.1.x265.10bit.HDR-ALT.mkv
  5. Format                                   : Matroska
  6. Format version                           : Version 4
  7. File size                                : 14.6 GiB
  8. Duration                                 : 1 h 44 min
  9. Overall bit rate mode                    : Variable
  10. Overall bit rate                         : 20.0 Mb/s
  11. Encoded date                             : UTC 2022-06-20 07:56:47
  12. Writing application                      : mkvmerge v49.0.0 ('Sick Of Losing Soulmates') 64-bit
  13. Writing library                          : libebml v1.4.0 + libmatroska v1.6.1
  14. Video
  15. ID                                       : 1
  16. Format                                   : HEVC
  17. Format/Info                              : High Efficiency Video Coding
  18. Format profile                           : Main 10@L5.1@High
  19. HDR format                               : SMPTE ST 2086, HDR10 compatible
  20. Codec ID                                 : V_MPEGH/ISO/HEVC
  21. Duration                                 : 1 h 44 min
  22. Bit rate                                 : 14.5 Mb/s
  23. Width                                    : 3 840 pixels
  24. Height                                   : 1 608 pixels
  25. Display aspect ratio                     : 2.40:1
  26. Frame rate mode                          : Constant
  27. Frame rate                               : 23.976 (24000/1001/53354) FPS
  28. Color space                              : YUV
  29. Chroma subsampling                       : 4:2:0 (Type 2)
  30. Bit depth                                : 10 bits
  31. Bits/(Pixel*Frame)                       : 0.098
  32. Stream size                              : 10.6 GiB (72%)
  33. Title                                    : HEVC, x265Main10@L5.1@High, 24/1.001 fps @ 14524 kbps
  34. Writing library                          : x265 3.5+36-1f2c8da77:[Windows][GCC 11.2.0][64 bit] 10bit
  35. Encoding settings                        : cpuid=533541111039 / frame-threads=4 / numa-pools=20 / wpp / no-pmode / no-pme / no-psnr / no-ssim / log-level=2 / input-csp=1 / input-res=3840x1608 / interlace=0 / total-frames=149880 / level-idc=51 / high-tier=1 / uhd-bd=0 / ref=4 / no-allow-non-conformance / repeat-headers / annexb / no-aud / no-eob / no-eos / hrd / info / hash=0 / no-temporal-layers / no-open-gop / min-keyint=24 / keyint=240 / gop-lookahead=0 / bframes=8 / b-adapt=2 / b-pyramid / bframe-bias=0 / rc-lookahead=25 / lookahead-slices=0 / NTMzNTQ=uuDQuD2mJt9fsCf / scenecut=40 / no-hist-scenecut / radl=0 / no-splice / no-intra-refresh / ctu=64 / min-cu-size=8 / no-rect / no-amp / max-tu-size=32 / tu-inter-depth=3 / tu-intra-depth=3 / limit-tu=4 / rdoq-level=2 / dynamic-rd=0.00 / no-ssim-rd / signhide / no-tskip / nr-intra=0 / nr-inter=0 / no-constrained-intra / no-strong-intra-smoothing / max-merge=4 / limit-refs=1 / limit-modes / me=3 / subme=4 / merange=57 / temporal-mvp / no-frame-dup / no-hme / weightp / weightb / no-analyze-src-pics / deblock=-3:-3 / no-sao / no-sao-non-deblock / rd=6 / selective-sao=0 / no-early-skip / rskip / no-fast-intra / no-tskip-fast / no-cu-lossless / b-intra / no-splitrd-skip / rdpenalty=0 / psy-rd=2.00 / psy-rdoq=1.00 / no-rd-refine / no-lossless / cbqpoffs=-2 / crqpoffs=-2 / rc=crf / crf=18.5 / qcomp=0.65 / qpstep=4 / stats-write=0 / stats-read=0 / vbv-maxrate=160000 / vbv-bufsize=160000 / vbv-init=0.9 / min-vbv-fullness=50.0 / max-vbv-fullness=80.0 / crf-max=0.0 / crf-min=0.0 / ipratio=1.30 / pbratio=1.20 / aq-mode=3 / aq-strength=0.85 / cutree / zone-count=0 / no-strict-cbr / qg-size=32 / no-rc-grain / qpmax=69 / qpmin=0 / no-const-vbv / sar=1 / overscan=0 / videoformat=5 / range=0 / colorprim=9 / transfer=16 / colormatrix=9 / chromaloc=1 / chromaloc-top=2 / chromaloc-bottom=2 / display-window=0 / master-display=G(13250,34500)B(7500,3000)R(34000,16000)WP(15635,16450)L(40000000,50) / cll=1098,297 / min-luma=0 / max-luma=1023 / log2-max-poc-lsb=8 / vui-timing-info / vui-hrd-info / slices=1 / no-opt-qp-pps / no-opt-ref-list-length-pps / no-multi-pass-opt-rps / scenecut-bias=0.05 / hist-threshold=0.03 / no-opt-cu-delta-qp / no-aq-motion / hdr10 / hdr10-opt / no-dhdr10-opt / no-idr-recovery-sei / analysis-reuse-level=0 / analysis-save-reuse-level=0 / analysis-load-reuse-level=0 / scale-factor=0 / refine-intra=0 / refine-inter=0 / refine-mv=1 / refine-ctu-distortion=0 / no-limit-sao / ctu-info=0 / no-lowpass-dct / refine-analysis-type=0 / copy-pic=1 / max-ausize-factor=1.0 / no-dynamic-refine / no-single-sei / no-hevc-aq / no-svt / no-field / qp-adaptation-range=1.00 / scenecut-aware-qp=0conformance-window-offsets / right=0 / bottom=0 / NTMzNTQ= / decoder-max-rate=0 / no-vbv-live-multi-pass
  36. Language                                 : English
  37. Default                                  : Yes
  38. Forced                                   : No
  39. Color range                              : Limited
  40. Color primaries                          : BT.2020
  41. Transfer characteristics                 : PQ
  42. Matrix coefficients                      : BT.2020 non-constant
  43. Mastering display color primaries        : Display P3
  44. Mastering display luminance              : min: 0.0050 cd/m2, max: 4000 cd/m2
  45. Maximum Content Light Level              : 1098 cd/m2
  46. Maximum Frame-Average Light Level        : 297 cd/m2
  47. Audio #1
  48. ID                                       : 2
  49. Format                                   : MLP FBA 16-ch
  50. Format/Info                              : Meridian Lossless Packing FBA with 16-channel presentation
  51. Commercial name                          : Dolby TrueHD with Dolby Atmos
  52. Codec ID                                 : A_TRUEHD
  53. Duration                                 : 1 h 44 min
  54. Bit rate mode                            : Variable
  55. Bit rate                                 : 4 696 kb/s
  56. Maximum bit rate                         : 7 740 kb/s
  57. Channel(s)                               : 8 channels
  58. Channel layout                           : L R C LFE Ls Rs Lb Rb
  59. Sampling rate                            : 48.0 kHz
  60. Frame rate                               : 1 200.000 FPS (40 SPF)
  61. Compression mode                         : Lossless
  62. Stream size                              : 3.42 GiB (23%)
  63. Title                                    : English Dolby TrueHD 7.1 (Atmos) @ 5336 kbps
  64. Language                                 : English
  65. Default                                  : Yes
  66. Forced                                   : No
  67. Number of dynamic objects                : 11
  68. Bed channel count                        : 1 channel
  69. Bed channel configuration                : LFE
  70. Audio #2
  71. ID                                       : 3
  72. Format                                   : AC-3
  73. Format/Info                              : Audio Coding 3
  74. Commercial name                          : Dolby Digital
  75. Codec ID                                 : A_AC3
  76. Duration                                 : 1 h 44 min
  77. Bit rate mode                            : Constant
  78. Bit rate                                 : 640 kb/s
  79. Channel(s)                               : 6 channels
  80. Channel layout                           : L R C LFE Ls Rs
  81. Sampling rate                            : 48.0 kHz
  82. Frame rate                               : 31.250 FPS (1536 SPF)
  83. Compression mode                         : Lossy
  84. Stream size                              : 477 MiB (3%)
  85. Title                                    : English Dolby 5.1-EX 5.1 @ 640 kbps
  86. Language                                 : English
  87. Service kind                             : Complete Main
  88. Default                                  : No
  89. Forced                                   : No
  90. Text #1
  91. ID                                       : 4
  92. Format                                   : PGS
  93. Codec ID                                 : S_HDMV/PGS
  94. Codec ID/Info                            : Picture based subtitle format used on BDs/HD-DVDs
  95. Duration                                 : 1 h 38 min
  96. Bit rate                                 : 29.0 kb/s
  97. Count of elements                        : 2323
  98. Stream size                              : 20.5 MiB (0%)
  99. Title                                    : Eng/SUP  SDH
  100. Language                                 : English
  101. Default                                  : No
  102. Forced                                   : No
  103. Text #2
  104. ID                                       : 5
  105. Format                                   : PGS
  106. Codec ID                                 : S_HDMV/PGS
  107. Codec ID/Info                            : Picture based subtitle format used on BDs/HD-DVDs
  108. Duration                                 : 1 h 34 min
  109. Bit rate                                 : 25.3 kb/s
  110. Count of elements                        : 1906
  111. Stream size                              : 17.0 MiB (0%)
  112. Title                                    : Eng/SUP
  113. Language                                 : English
  114. Default                                  : No
  115. Forced                                   : No
  116. Text #3
  117. ID                                       : 6
  118. Format                                   : PGS
  119. Codec ID                                 : S_HDMV/PGS
  120. Codec ID/Info                            : Picture based subtitle format used on BDs/HD-DVDs
  121. Duration                                 : 1 h 42 min
  122. Bit rate                                 : 19.7 kb/s
  123. Count of elements                        : 1882
  124. Stream size                              : 14.5 MiB (0%)
  125. Title                                    : Chs/SUP  原盘简体
  126. Language                                 : Chinese
  127. Default                                  : Yes
  128. Forced                                   : No
  129. Text #4
  130. ID                                       : 7
  131. Format                                   : PGS
  132. Codec ID                                 : S_HDMV/PGS
  133. Codec ID/Info                            : Picture based subtitle format used on BDs/HD-DVDs
  134. Duration                                 : 1 h 42 min
  135. Bit rate                                 : 18.9 kb/s
  136. Count of elements                        : 1894
  137. Stream size                              : 13.9 MiB (0%)
  138. Title                                    : Cht/SUP  原盘繁体(HK)
  139. Language                                 : Chinese
  140. Default                                  : No
  141. Forced                                   : No
  142. Text #5
  143. ID                                       : 8
  144. Format                                   : PGS
  145. Codec ID                                 : S_HDMV/PGS
  146. Codec ID/Info                            : Picture based subtitle format used on BDs/HD-DVDs
  147. Duration                                 : 1 h 42 min
  148. Bit rate                                 : 19.0 kb/s
  149. Count of elements                        : 1906
  150. Stream size                              : 13.9 MiB (0%)
  151. Title                                    : Cht/SUP  原盘繁体(TW)
  152. Language                                 : Chinese
  153. Default                                  : No
  154. Forced                                   : No
  155. Menu
  156. 00:00:00.000                             : en:第 01 章
  157. 00:05:06.932                             : en:第 02 章
  158. 00:10:15.824                             : en:第 03 章
  159. 00:16:57.350                             : en:第 04 章
  160. 00:21:36.754                             : en:第 05 章
  161. 00:27:58.385                             : en:第 06 章
  162. 00:32:58.476                             : en:第 07 章
  163. 00:38:04.157                             : en:第 08 章
  164. 00:43:17.762                             : en:第 09 章
  165. 00:48:58.102                             : en:第 10 章
  166. 00:55:10.557                             : en:第 11 章
  167. 01:01:11.877                             : en:第 12 章
  168. 01:05:28.424                             : en:第 13 章
  169. 01:13:07.049                             : en:第 14 章
  170. 01:20:06.385                             : en:第 15 章
  171. 01:26:32.729                             : en:第 16 章





此处一般会放置磁力链或种子下载链接,不过此链接需要注册会员才能看到,点击“立即注册”
磁力链下载【下载链接仅对注册会员开放,登陆后可见】
BT9527电影天堂 1、BT9527电影天堂提供的BT文件均来源于互联网抓取,只供网友学习交流、技术提升使用。
2、我们遵守BitTorrent点对点协议原则,任何版权问题请联系原资源发布商,我们不处理任何版权纠纷,谢谢!如有争议请联系邮箱:BT9527#hotmail.com(#换成@)
3、如果您发现某页面或地址有错误,请联系站长邮箱BT9527#hotmail.com(#换成@),我们会尽快处理。您的热心是对BT9527电影天堂最大的支持。
4、本站建议去正规影院观看电影以支持电影行业发展。
最新回复 (0)

你可以在 登录 or 注册 后,对此帖发表评论!

返回
发新帖