浑身是劲[中文字幕].Footloose.1984.1080p.BluRay.DTS.x265-10bit-ENTHD 8.13GB

版主小s 3月前 220

✔资源类型:暂未分类   ✔电影年份:更 早   ✔电影地区:欧美   ✔电影分类:剧情

◎译  名 浑身是劲
◎片  名 Footloose
◎年  代 1984
◎产  地 美国
◎类  别 剧情 / 爱情 / 音乐
◎语  言 英语
◎上映日期 1984-02-17
◎IMDb链接 https://www.imdb.com/title/tt0087277/
◎豆瓣评分 7.2/10 (1424人评价)
◎豆瓣链接 https://movie.douban.com/subject/1296045/
◎片  长 107 分钟
◎导  演 赫伯特·罗斯 Herbert Ross (id:1056128)
◎编  剧 迪安·皮奇福德 Dean Pitchford (id:1023594)
◎演  员 凯文·贝肯 Kevin Bacon (id:1009260)
       洛里·辛格 Lori Singer (id:1055499)
       约翰·利思戈 John Lithgow (id:1027824)
       黛安·韦斯特 Dianne Wiest (id:1002725)
       克里斯·潘 Chris Penn (id:1027819)
       莎拉·杰茜卡·帕克 Sarah Jessica Parker (id:1054389)
       Leo Geter Leo Geter (id:1284769)
       马西娅·盖伊·哈登 Marcia Gay Harden (id:1025195)
       迈克·芬顿 Mike Fenton (id:1283570)
       格洛里亚·格雷斯汉 Gloria Gresham (id:1285438)
       Barbara Lampson Barbara Lampson (id:1289340)
       Robert Engelman Robert Engelman (id:1283210)

◎简  介
  伦·迈克马科从大城市芝加哥搬到了南部的小城贝农居住,在这里,他体会到了严重而激烈的文化冲突。在这个小镇子里,吵闹的摇滚乐和酒精与跳舞的派对是禁止的。原因是几年前,在当地发生了一件骇人听闻的大事件。五个十几岁的少年,因为晚上出去游玩,遭遇了车祸,全部遇难。所以贝农当地的议 员、牧师和德高望重的名流共同起草了一个法案,禁止年轻人晚上出去聚会,禁止摇滚乐等等。                                    
                                没有人敢于尝试明目张胆地打破禁区,但是来自大城市的伦偏偏要做第一个吃螃蟹的人。在和这种老旧的体制做斗争的时候,伦还和当地牧师的问题不断的女儿艾瑞尔坠入了爱河……

◎获奖情况 (共1项)
  第57届奥斯卡金像奖 (1985)
  最佳原创歌曲(提名)

  1. ##### MediaInfo ######
  2. General
  3. Unique ID                                : 314677079031741408511105352210958952404 (0xECBC99D6AD315BEC0672E6CBE31EA7D4)
  4. Complete name                            : Footloose.1984.1080p.BluRay.DTS.x265-10bit-ENTHD.mkv
  5. Format                                   : Matroska
  6. Format version                           : Version 4
  7. File size                                : 8.13 GiB
  8. Duration                                 : 1 h 47 min
  9. Overall bit rate                         : 10.9 Mb/s
  10. Movie name                               : Footloose 1984 1080p BluRay DTS x265-10bit-HDS
  11. Encoded date                             : UTC 2022-06-20 00:00:12
  12. Writing application                      : mkvmerge v67.0.0 ('Under Stars') 64-bit
  13. Writing library                          : libebml v1.4.2 + libmatroska v1.6.4
  14. Video
  15. ID                                       : 1
  16. Format                                   : HEVC
  17. Format/Info                              : High Efficiency Video Coding
  18. Format profile                           : Main 10@L5.1@High
  19. Codec ID                                 : V_MPEGH/ISO/HEVC
  20. Duration                                 : 1 h 47 min
  21. Bit rate                                 : 9 317 kb/s
  22. Width                                    : 1 920 pixels
  23. Height                                   : 1 080 pixels
  24. Display aspect ratio                     : 16:9
  25. Frame rate mode                          : Constant
  26. Frame rate                               : 23.976 (24000/1001/53354) FPS
  27. Color space                              : YUV
  28. Chroma subsampling                       : 4:2:0
  29. Bit depth                                : 10 bits
  30. Bits/(Pixel*Frame)                       : 0.187
  31. Stream size                              : 6.98 GiB (86%)
  32. Title                                    : 735674307@HDSky
  33. Writing library                          : x265 - H.265/HEVC codec
  34. Default                                  : Yes
  35. Forced                                   : No
  36. Audio
  37. ID                                       : 2
  38. Format                                   : DTS ES
  39. Format/Info                              : Digital Theater Systems
  40. Commercial name                          : DTS-ES Matrix
  41. Codec ID                                 : A_DTS
  42. Duration                                 : 1 h 47 min
  43. Bit rate mode                            : Constant
  44. Bit rate                                 : 1 509 kb/s
  45. Channel(s)                               : 6 channels
  46. Channel(s)_Original                      : 7 channels
  47. ChannelLayout_Original                   : C L R Ls Rs Cs LFE
  48. Sampling rate                            : 48.0 kHz
  49. Frame rate                               : 93.750 FPS (512 SPF)
  50. Bit depth                                : 24 bits
  51. Compression mode                         : Lossy
  52. Stream size                              : 1.13 GiB (14%)
  53. Title                                    : English
  54. Language                                 : English
  55. Default                                  : Yes
  56. Forced                                   : No
  57. Text #1
  58. ID                                       : 3
  59. Format                                   : PGS
  60. Muxing mode                              : zlib
  61. Codec ID                                 : S_HDMV/PGS
  62. Codec ID/Info                            : Picture based subtitle format used on BDs/HD-DVDs
  63. Duration                                 : 1 h 39 min
  64. Bit rate                                 : 30.5 kb/s
  65. Count of elements                        : 2360
  66. Stream size                              : 21.7 MiB (0%)
  67. Title                                    : CHS
  68. Language                                 : Chinese
  69. Default                                  : Yes
  70. Forced                                   : No
  71. Text #2
  72. ID                                       : 4
  73. Format                                   : PGS
  74. Muxing mode                              : zlib
  75. Codec ID                                 : S_HDMV/PGS
  76. Codec ID/Info                            : Picture based subtitle format used on BDs/HD-DVDs
  77. Duration                                 : 1 h 44 min
  78. Bit rate                                 : 47.4 kb/s
  79. Count of elements                        : 2546
  80. Stream size                              : 35.4 MiB (0%)
  81. Title                                    : ENG
  82. Language                                 : English
  83. Default                                  : Yes
  84. Forced                                   : No
  85. Menu
  86. 00:00:00.000                             : en:第 01 章
  87. 00:06:21.506                             : en:第 02 章
  88. 00:10:29.420                             : en:第 03 章
  89. 00:16:12.263                             : en:第 04 章
  90. 00:24:03.484                             : en:第 05 章
  91. 00:32:33.785                             : en:第 06 章
  92. 00:38:03.865                             : en:第 07 章
  93. 00:46:20.403                             : en:第 08 章
  94. 00:52:07.124                             : en:第 09 章
  95. 00:57:31.865                             : en:第 10 章
  96. 01:04:26.780                             : en:第 11 章
  97. 01:08:04.497                             : en:第 12 章
  98. 01:15:02.832                             : en:第 13 章
  99. 01:17:36.235                             : en:第 14 章
  100. 01:23:26.960                             : en:第 15 章
  101. 01:31:18.473                             : en:第 16 章





此处一般会放置磁力链或种子下载链接,不过此链接需要注册会员才能看到,点击“立即注册”
磁力链下载【下载链接仅对注册会员开放,登陆后可见】
BT9527电影天堂 1、BT9527电影天堂提供的BT文件均来源于互联网抓取,只供网友学习交流、技术提升使用。
2、我们遵守BitTorrent点对点协议原则,任何版权问题请联系原资源发布商,我们不处理任何版权纠纷,谢谢!如有争议请联系邮箱:BT9527#hotmail.com(#换成@)
3、如果您发现某页面或地址有错误,请联系站长邮箱BT9527#hotmail.com(#换成@),我们会尽快处理。您的热心是对BT9527电影天堂最大的支持。
4、本站建议去正规影院观看电影以支持电影行业发展。
最新回复 (0)

你可以在 登录 or 注册 后,对此帖发表评论!

返回
发新帖