神奇动物:邓布利多之谜[简繁字幕].Fantastic.Beasts.The.Secrets.of.Dumbledore.2022.1080p.BluRay.x265.10bit-HomeHD 6.57GB

版主小s 10天前 44

✔资源类型:暂未分类   ✔电影年份:2022   ✔电影地区:欧美   ✔电影分类:奇幻

◎译  名 神奇动物:邓布利多之谜 / 神奇动物在哪里3:邓布利多之谜 / 神奇生物在哪里3 / 怪兽与邓不利多的秘密(港 / 台)
◎片  名 Fantastic Beasts: The Secrets of Dumbledore
◎年  代 2022
◎产  地 英国 / 美国
◎类  别 奇幻 / 冒险
◎语  言 英语 / 德语
◎上映日期 2022-04-08(英国/中国大陆) / 2022-04-15(美国)
◎IMDb链接 https://www.imdb.com/title/tt4123432/
◎豆瓣评分 5.9/10 (150327人评价)
◎豆瓣链接 https://movie.douban.com/subject/26147418/
◎片  长 142分钟
◎导  演 大卫·叶茨 David Yates (id:1275147)
◎编  剧 J. K. 罗琳 J. K. Rowling (id:1022772)
       史蒂夫·克洛夫斯 Steve Kloves (id:1107737)
◎演  员 埃迪·雷德梅恩 Eddie Redmayne (id:1010503)
       裘德·洛 Jude Law (id:1010510)
       麦斯·米科尔森 Mads Mikkelsen (id:1040529)
       丹·福勒 Dan Fogler (id:1027317)
       艾莉森·萨多尔 Alison Sudol (id:1350625)
       凯瑟琳·沃特斯顿 Katherine Waterston (id:1316589)
       埃兹拉·米勒 Ezra Miller (id:1313037)
       卡勒姆·特纳 Callum Turner (id:1328007)
       杰西卡·威廉姆斯 Jessica Williams (id:1189267)
       理查德·柯伊尔 Richard Coyle (id:1031846)
       波佩·科比-特曲 Poppy Corby-Tuech (id:1337282)
       维多利亚·耶茨 Victoria Yeates (id:1397745)
       威廉·纳迪兰 William Nadylam (id:1361420)
       奥利弗·马苏奇 Oliver Masucci (id:1356578)
       瓦莱丽·帕赫纳 Valerie Pachner (id:1376990)
       亚历山大·库兹涅佐夫 Aleksandr Kuznetsov (id:1400621)
       拉莫娜·库泽-莉比诺 Ramona Kunze-Libnow (id:1371863)
       马丽娅·费尔南达·康基多 Maria Fernanda Candido (id:1069306)
       戴夫·王 Dave Wong (id:1468526)
       维尔夫·斯科尔丁 Wilf Scolding (id:1422221)
       卢卡斯·英格兰德 Lucas Englander (id:1420361)
       菲奥娜·格拉斯科特 Fiona Glascott (id:1094753)
       马提亚斯·布伦纳 Matthias Brenner (id:1068895)
       彼得·西蒙尼舍克 Peter Simonischek (id:1155835)
       雅基·波特斯万 Jacqui Boatswain (id:1278852)
       赫柏·贝尔德索尔 Hebe Beardsall (id:1315461)
       曼努埃尔·克莱因 Manuel Klein (id:1107683)
       凯文·格思里 Kevin Guthrie (id:1335226)
       詹姆斯·纽顿·霍华德 James Newton Howard (id:1019135)
       乔治·瑞奇蒙 George Richmond (id:1434359)
       柯琳·阿特伍德 Colleen Atwood (id:1277560)

◎简  介
  阿不思·邓布利多教授(裘德·洛 饰)意识到强大的黑巫师盖勒特·格林德沃(麦斯·米科尔森 饰)正试图夺取魔法世界的控制权。邓布利多了解仅凭他一人之力,将无法阻止格林德沃,于是他委托魔法动物学家纽特·斯卡曼德(埃迪·雷德梅恩 饰)带领一支精良的团队——成员包括男巫、女巫及一位勇敢的麻瓜面包师,来共同执行这项危险任务。一路上他们会遇到各式各样的神奇动物,既有老朋友,也有前所未见的神秘生物;同时他们也随时会与格林德沃不断壮大的追随者发生冲突。这次行动的风险是如此之高……邓布利多还能袖手旁观多久?
  1. ##### MediaInfo ######
  2. General
  3. Unique ID                                : 129044125833835053549867825147997091806 (0x6114FE9EB321A9AB2C1A9509251877DE)
  4. Complete name                            : Fantastic.Beasts.The.Secrets.of.Dumbledore.2022.1080p.BluRay.x265.10bit-HomeHD.mkv
  5. Format                                   : Matroska
  6. Format version                           : Version 4
  7. File size                                : 6.57 GiB
  8. Duration                                 : 2 h 22 min
  9. Overall bit rate                         : 6 592 kb/s
  10. Encoded date                             : UTC 2022-06-19 13:10:35
  11. Writing application                      : mkvmerge v55.0.0 ('Waiting For Space') 64-bit
  12. Writing library                          : libebml v1.4.2 + libmatroska v1.6.4
  13. Video
  14. ID                                       : 1
  15. Format                                   : HEVC
  16. Format/Info                              : High Efficiency Video Coding
  17. Format profile                           : Main 10@L4@Main
  18. Codec ID                                 : V_MPEGH/ISO/HEVC
  19. Duration                                 : 2 h 22 min
  20. Bit rate                                 : 6 142 kb/s
  21. Width                                    : 1 920 pixels
  22. Height                                   : 800 pixels
  23. Display aspect ratio                     : 2.40:1
  24. Frame rate mode                          : Constant
  25. Frame rate                               : 23.976 (24000/1001/53354) FPS
  26. Color space                              : YUV
  27. Chroma subsampling                       : 4:2:0
  28. Bit depth                                : 10 bits
  29. Bits/(Pixel*Frame)                       : 0.167
  30. Stream size                              : 6.12 GiB (93%)
  31. Default                                  : Yes
  32. Forced                                   : No
  33. Audio
  34. ID                                       : 2
  35. Format                                   : AC-3
  36. Format/Info                              : Audio Coding 3
  37. Commercial name                          : Dolby Digital
  38. Codec ID                                 : A_AC3
  39. Duration                                 : 2 h 22 min
  40. Bit rate mode                            : Constant
  41. Bit rate                                 : 448 kb/s
  42. Channel(s)                               : 6 channels
  43. Channel layout                           : L R C LFE Ls Rs
  44. Sampling rate                            : 48.0 kHz
  45. Frame rate                               : 31.250 FPS (1536 SPF)
  46. Compression mode                         : Lossy
  47. Stream size                              : 457 MiB (7%)
  48. Language                                 : English
  49. Service kind                             : Complete Main
  50. Default                                  : Yes
  51. Forced                                   : No
  52. Text #1
  53. ID                                       : 3
  54. Format                                   : UTF-8
  55. Codec ID                                 : S_TEXT/UTF8
  56. Codec ID/Info                            : UTF-8 Plain Text
  57. Duration                                 : 2 h 22 min
  58. Bit rate                                 : 33 b/s
  59. Count of elements                        : 1340
  60. Stream size                              : 35.2 KiB (0%)
  61. Title                                    : 简体
  62. Language                                 : Chinese
  63. Default                                  : Yes
  64. Forced                                   : No
  65. Text #2
  66. ID                                       : 4
  67. Format                                   : UTF-8
  68. Codec ID                                 : S_TEXT/UTF8
  69. Codec ID/Info                            : UTF-8 Plain Text
  70. Duration                                 : 2 h 21 min
  71. Bit rate                                 : 29 b/s
  72. Count of elements                        : 1155
  73. Stream size                              : 30.3 KiB (0%)
  74. Title                                    : 繁体
  75. Language                                 : Chinese
  76. Default                                  : No
  77. Forced                                   : No





此处一般会放置磁力链或种子下载链接,不过此链接需要注册会员才能看到,点击“立即注册”
磁力链下载【下载链接仅对注册会员开放,登陆后可见】
BT9527电影天堂 1、BT9527电影天堂提供的BT文件均来源于互联网抓取,只供网友学习交流、技术提升使用。
2、我们遵守BitTorrent点对点协议原则,任何版权问题请联系原资源发布商,我们不处理任何版权纠纷,谢谢!如有争议请联系邮箱:BT9527#hotmail.com(#换成@)
3、如果您发现某页面或地址有错误,请联系站长邮箱BT9527#hotmail.com(#换成@),我们会尽快处理。您的热心是对BT9527电影天堂最大的支持。
4、本站建议去正规影院观看电影以支持电影行业发展。
最新回复 (0)

你可以在 登录 or 注册 后,对此帖发表评论!

返回
发新帖