神奇动物:邓布利多之谜[简繁英字幕].Fantastic.Beasts.The.Secrets.of.Dumbledore.2022.1080p.BluRay.TrueHD.7.1.Atmos.x265-10bit-ENTHD 8.85GB

版主小s 3月前 160

✔资源类型:暂未分类   ✔电影年份:2022   ✔电影地区:欧美   ✔电影分类:奇幻

◎译  名 神奇动物:邓布利多之谜 / 神奇动物在哪里3:邓布利多之谜 / 神奇生物在哪里3 / 怪兽与邓不利多的秘密(港 / 台)
◎片  名 Fantastic Beasts: The Secrets of Dumbledore
◎年  代 2022
◎产  地 英国 / 美国
◎类  别 奇幻 / 冒险
◎语  言 英语 / 德语
◎上映日期 2022-04-08(英国/中国大陆) / 2022-04-15(美国)
◎IMDb链接 https://www.imdb.com/title/tt4123432/
◎豆瓣评分 5.9/10 (150327人评价)
◎豆瓣链接 https://movie.douban.com/subject/26147418/
◎片  长 142分钟
◎导  演 大卫·叶茨 David Yates (id:1275147)
◎编  剧 J. K. 罗琳 J. K. Rowling (id:1022772)
       史蒂夫·克洛夫斯 Steve Kloves (id:1107737)
◎演  员 埃迪·雷德梅恩 Eddie Redmayne (id:1010503)
       裘德·洛 Jude Law (id:1010510)
       麦斯·米科尔森 Mads Mikkelsen (id:1040529)
       丹·福勒 Dan Fogler (id:1027317)
       艾莉森·萨多尔 Alison Sudol (id:1350625)
       凯瑟琳·沃特斯顿 Katherine Waterston (id:1316589)
       埃兹拉·米勒 Ezra Miller (id:1313037)
       卡勒姆·特纳 Callum Turner (id:1328007)
       杰西卡·威廉姆斯 Jessica Williams (id:1189267)
       理查德·柯伊尔 Richard Coyle (id:1031846)
       波佩·科比-特曲 Poppy Corby-Tuech (id:1337282)
       维多利亚·耶茨 Victoria Yeates (id:1397745)
       威廉·纳迪兰 William Nadylam (id:1361420)
       奥利弗·马苏奇 Oliver Masucci (id:1356578)
       瓦莱丽·帕赫纳 Valerie Pachner (id:1376990)
       亚历山大·库兹涅佐夫 Aleksandr Kuznetsov (id:1400621)
       拉莫娜·库泽-莉比诺 Ramona Kunze-Libnow (id:1371863)
       马丽娅·费尔南达·康基多 Maria Fernanda Candido (id:1069306)
       戴夫·王 Dave Wong (id:1468526)
       维尔夫·斯科尔丁 Wilf Scolding (id:1422221)
       卢卡斯·英格兰德 Lucas Englander (id:1420361)
       菲奥娜·格拉斯科特 Fiona Glascott (id:1094753)
       马提亚斯·布伦纳 Matthias Brenner (id:1068895)
       彼得·西蒙尼舍克 Peter Simonischek (id:1155835)
       雅基·波特斯万 Jacqui Boatswain (id:1278852)
       赫柏·贝尔德索尔 Hebe Beardsall (id:1315461)
       曼努埃尔·克莱因 Manuel Klein (id:1107683)
       凯文·格思里 Kevin Guthrie (id:1335226)
       詹姆斯·纽顿·霍华德 James Newton Howard (id:1019135)
       乔治·瑞奇蒙 George Richmond (id:1434359)
       柯琳·阿特伍德 Colleen Atwood (id:1277560)

◎简  介
  阿不思·邓布利多教授(裘德·洛 饰)意识到强大的黑巫师盖勒特·格林德沃(麦斯·米科尔森 饰)正试图夺取魔法世界的控制权。邓布利多了解仅凭他一人之力,将无法阻止格林德沃,于是他委托魔法动物学家纽特·斯卡曼德(埃迪·雷德梅恩 饰)带领一支精良的团队——成员包括男巫、女巫及一位勇敢的麻瓜面包师,来共同执行这项危险任务。一路上他们会遇到各式各样的神奇动物,既有老朋友,也有前所未见的神秘生物;同时他们也随时会与格林德沃不断壮大的追随者发生冲突。这次行动的风险是如此之高……邓布利多还能袖手旁观多久?
  1. ##### MediaInfo ######
  2. General
  3. Unique ID                                : 25415190114994143885870522503360368524 (0x131EC99E167082830402E39FBFDB4F8C)
  4. Complete name                            : Fantastic.Beasts.The.Secrets.of.Dumbledore.2022.1080p.BluRay.TrueHD.7.1.Atmos.x265-10bit-ENTHD.mkv
  5. Format                                   : Matroska
  6. Format version                           : Version 4
  7. File size                                : 8.85 GiB
  8. Duration                                 : 2 h 22 min
  9. Overall bit rate mode                    : Variable
  10. Overall bit rate                         : 8 879 kb/s
  11. Movie name                               : Fantastic Beasts The Secrets of Dumbledore 2022 1080p BluRay TrueHD 7.1 Atmos x265-10bit-HDS
  12. Encoded date                             : UTC 2022-06-20 22:55:49
  13. Writing application                      : mkvmerge v68.0.0 ('The Curtain') 64-bit
  14. Writing library                          : libebml v1.4.2 + libmatroska v1.6.4 / Lavf59.17.101
  15. Video
  16. ID                                       : 1
  17. Format                                   : HEVC
  18. Format/Info                              : High Efficiency Video Coding
  19. Format profile                           : Main 10@L5.1@High
  20. Codec ID                                 : V_MPEGH/ISO/HEVC
  21. Duration                                 : 2 h 22 min
  22. Bit rate                                 : 5 551 kb/s
  23. Width                                    : 1 920 pixels
  24. Height                                   : 804 pixels
  25. Display aspect ratio                     : 2.40:1
  26. Frame rate mode                          : Constant
  27. Frame rate                               : 23.976 (24000/1001/53354) FPS
  28. Color space                              : YUV
  29. Chroma subsampling                       : 4:2:0
  30. Bit depth                                : 10 bits
  31. Bits/(Pixel*Frame)                       : 0.150
  32. Stream size                              : 5.53 GiB (63%)
  33. Title                                    : GalenMao@HDSky
  34. Default                                  : No
  35. Forced                                   : No
  36. Audio #1
  37. ID                                       : 2
  38. Format                                   : MLP FBA 16-ch
  39. Format/Info                              : Meridian Lossless Packing FBA with 16-channel presentation
  40. Commercial name                          : Dolby TrueHD with Dolby Atmos
  41. Codec ID                                 : A_TRUEHD
  42. Duration                                 : 2 h 22 min
  43. Bit rate mode                            : Variable
  44. Bit rate                                 : 2 742 kb/s
  45. Maximum bit rate                         : 4 389 kb/s
  46. Channel(s)                               : 8 channels
  47. Channel layout                           : L R C LFE Ls Rs Lb Rb
  48. Sampling rate                            : 48.0 kHz
  49. Frame rate                               : 1 200.000 FPS (40 SPF)
  50. Compression mode                         : Lossless
  51. Stream size                              : 2.73 GiB (31%)
  52. Title                                    : English
  53. Language                                 : English
  54. Default                                  : Yes
  55. Forced                                   : No
  56. Number of dynamic objects                : 11
  57. Bed channel count                        : 1 channel
  58. Bed channel configuration                : LFE
  59. Audio #2
  60. ID                                       : 3
  61. Format                                   : AC-3
  62. Format/Info                              : Audio Coding 3
  63. Commercial name                          : Dolby Digital
  64. Codec ID                                 : A_AC3
  65. Duration                                 : 2 h 22 min
  66. Bit rate mode                            : Constant
  67. Bit rate                                 : 448 kb/s
  68. Channel(s)                               : 6 channels
  69. Channel layout                           : L R C LFE Ls Rs
  70. Sampling rate                            : 48.0 kHz
  71. Frame rate                               : 31.250 FPS (1536 SPF)
  72. Compression mode                         : Lossy
  73. Stream size                              : 457 MiB (5%)
  74. Service kind                             : Complete Main
  75. Default                                  : Yes
  76. Forced                                   : No
  77. Text #1
  78. ID                                       : 4
  79. Format                                   : PGS
  80. Muxing mode                              : zlib
  81. Codec ID                                 : S_HDMV/PGS
  82. Codec ID/Info                            : Picture based subtitle format used on BDs/HD-DVDs
  83. Duration                                 : 2 h 20 min
  84. Bit rate                                 : 29.0 kb/s
  85. Count of elements                        : 3647
  86. Stream size                              : 29.1 MiB (0%)
  87. Title                                    : ENG
  88. Language                                 : English
  89. Default                                  : Yes
  90. Forced                                   : No
  91. Text #2
  92. ID                                       : 5
  93. Format                                   : PGS
  94. Muxing mode                              : zlib
  95. Codec ID                                 : S_HDMV/PGS
  96. Codec ID/Info                            : Picture based subtitle format used on BDs/HD-DVDs
  97. Duration                                 : 2 h 22 min
  98. Bit rate                                 : 20.7 kb/s
  99. Count of elements                        : 2676
  100. Stream size                              : 21.1 MiB (0%)
  101. Title                                    : CHS
  102. Language                                 : Chinese
  103. Default                                  : Yes
  104. Forced                                   : No
  105. Text #3
  106. ID                                       : 6
  107. Format                                   : PGS
  108. Muxing mode                              : zlib
  109. Codec ID                                 : S_HDMV/PGS
  110. Codec ID/Info                            : Picture based subtitle format used on BDs/HD-DVDs
  111. Duration                                 : 2 h 22 min
  112. Bit rate                                 : 21.5 kb/s
  113. Count of elements                        : 2676
  114. Stream size                              : 21.9 MiB (0%)
  115. Title                                    : CHT
  116. Language                                 : Chinese
  117. Default                                  : Yes
  118. Forced                                   : No
  119. Text #4
  120. ID                                       : 7
  121. Format                                   : PGS
  122. Muxing mode                              : zlib
  123. Codec ID                                 : S_HDMV/PGS
  124. Codec ID/Info                            : Picture based subtitle format used on BDs/HD-DVDs
  125. Duration                                 : 2 h 22 min
  126. Bit rate                                 : 33.7 kb/s
  127. Count of elements                        : 2676
  128. Stream size                              : 34.3 MiB (0%)
  129. Title                                    : CHS&ENG
  130. Language                                 : Chinese
  131. Default                                  : Yes
  132. Forced                                   : No
  133. Text #5
  134. ID                                       : 8
  135. Format                                   : PGS
  136. Muxing mode                              : zlib
  137. Codec ID                                 : S_HDMV/PGS
  138. Codec ID/Info                            : Picture based subtitle format used on BDs/HD-DVDs
  139. Duration                                 : 2 h 22 min
  140. Bit rate                                 : 34.4 kb/s
  141. Count of elements                        : 2676
  142. Stream size                              : 35.0 MiB (0%)
  143. Title                                    : CHT&ENG
  144. Language                                 : Chinese
  145. Default                                  : Yes
  146. Forced                                   : No
  147. Menu
  148. 00:00:00.000                             : en:第 01 章
  149. 00:10:32.799                             : en:第 02 章
  150. 00:21:47.932                             : en:第 03 章
  151. 00:28:14.568                             : en:第 04 章
  152. 00:37:49.601                             : en:第 05 章
  153. 00:47:41.567                             : en:第 06 章
  154. 01:00:03.475                             : en:第 07 章
  155. 01:10:51.831                             : en:第 08 章
  156. 01:18:50.976                             : en:第 09 章
  157. 01:30:10.655                             : en:第 10 章
  158. 01:39:50.568                             : en:第 11 章
  159. 01:49:31.064                             : en:第 12 章
  160. 01:56:51.171                             : en:第 13 章
  161. 02:07:17.964                             : en:第 14 章
  162. 02:13:17.615                             : en:第 15 章





此处一般会放置磁力链或种子下载链接,不过此链接需要注册会员才能看到,点击“立即注册”
磁力链下载【下载链接仅对注册会员开放,登陆后可见】
BT9527电影天堂 1、BT9527电影天堂提供的BT文件均来源于互联网抓取,只供网友学习交流、技术提升使用。
2、我们遵守BitTorrent点对点协议原则,任何版权问题请联系原资源发布商,我们不处理任何版权纠纷,谢谢!如有争议请联系邮箱:BT9527#hotmail.com(#换成@)
3、如果您发现某页面或地址有错误,请联系站长邮箱BT9527#hotmail.com(#换成@),我们会尽快处理。您的热心是对BT9527电影天堂最大的支持。
4、本站建议去正规影院观看电影以支持电影行业发展。
最新回复 (0)

你可以在 登录 or 注册 后,对此帖发表评论!

返回
发新帖