彗星来的那一夜[简繁字幕].Coherence.2013.1080p.BluRay.x265.10bit.DTS-HomeHD 6.18GB

版主小s 10天前 42

✔资源类型:暂未分类   ✔电影年份:2013   ✔电影地区:欧美   ✔电影分类:科幻

◎译  名 彗星来的那一夜 / 相干性 / 相干效应
◎片  名 Coherence
◎年  代 2013
◎产  地 美国 / 英国
◎类  别 科幻 / 悬疑 / 惊悚
◎语  言 英语
◎上映日期 2013-09-19(奇幻电影节) / 2014-08-06(美国)
◎IMDb链接 https://www.imdb.com/title/tt2866360/
◎豆瓣评分 8.5/10 (509264人评价)
◎豆瓣链接 https://movie.douban.com/subject/25807345/
◎片  长 89分钟
◎导  演 詹姆斯·沃德·布柯特 James Ward Byrkit (id:1342405)
◎编  剧 詹姆斯·沃德·布柯特 James Ward Byrkit (id:1342405)
       亚历克斯·马努吉安 Alex Manugian (id:1343115)
◎演  员 艾米丽·芭尔多尼 Emily Baldoni (id:1343010)
       莫瑞·史特林 Maury Sterling (id:1151824)
       尼古拉斯·布兰登 Nicholas Brendon (id:1000085)
       劳伦·斯卡法莉娅 Lorene Scafaria (id:1320877)
       伊丽莎白·格瑞斯 Elizabeth Gracen (id:1056173)
       雨果·阿姆斯特朗 Hugo Armstrong (id:1343120)
       亚历克斯·马努吉安 Alex Manugian (id:1343115)
       劳伦·马赫 Lauren Maher (id:1343121)
       莱内·鲍萨格尔 Lene Bausager (id:1304389)
       詹姆斯·沃德·布柯特 James Ward Byrkit (id:1342405)
       亚历克斯·马努吉安 Alex Manugian (id:1343115)
       克里斯汀·奥尔恩·戴鲁德 Kristin ?hrn Dyrud (id:1309107)
       尼克·赛德勒 Nic Sadler (id:1022524)
       詹姆斯·沃德·布柯特 James Ward Byrkit (id:1342405)
       诺玛·李 Norma Lee (id:1289694)
       维多利亚·伍德 Victoria Wood (id:1301232)
       乔伊·萨帕塔 Joy Zapata (id:1301634)
       杰西·波默罗伊 Jesse Pomeroy (id:1137035)
       文森特·吉塞蒂 Vincent Guisetti (id:1285629)

◎简  介
  在一个静得有些诡异阴森的夜晚,年轻女子艾米丽(艾米丽·芭尔多尼 Emily Baldoni 饰)驱车来到朋友家参加聚会。此前她一边开车一边和男友打电话,然而通话突然中断,她的手机屏也莫名其妙出现裂痕。这一事件让艾米丽的心中升起隐隐不安,因为当晚一颗彗星刚好接近地球,一个 很久之前听过的传说使她对彗星的到来有着不祥的预感。稍后,朋友们落座,大家彼此交谈,叙说近况,虽然言语中有着许多莫名其妙、蹊跷反常的线索,然而均被一带而过。突然间,灯光尽灭。当光明重新来临时,众人发现附近只有一户人家还在亮灯,而亮灯人家里坐着的竟是……                                    
                                本片荣获2014年阿姆斯特丹奇幻电影节黑郁金香奖。

◎获奖情况 (共3项)
  第24届哥谭独立电影奖 (2014)
  独立电影人奖(提名)
   └──詹姆斯·沃德·布柯特 (id:1342405)

  第1届豆瓣电影年度榜单 (2014)
  10月最受关注电影(提名)

  第5届豆瓣电影鑫像奖 (2015)
  鑫豆单元 最佳影片(外语)(提名)

  1. ##### MediaInfo ######
  2. General
  3. Unique ID                                : 221980313774111894248041976852916411708 (0xA6FFDA743DCF29C9B9114271C97F1D3C)
  4. Complete name                            : Coherence.2013.1080p.BluRay.x265.10bit.DTS-HomeHD.mkv
  5. Format                                   : Matroska
  6. Format version                           : Version 1
  7. File size                                : 6.18 GiB
  8. Duration                                 : 1 h 27 min
  9. Overall bit rate                         : 10.1 Mb/s
  10. Encoded date                             : UTC 2022-06-17 10:35:23
  11. Writing application                      : mkvmerge v2.2.0 ('Turn It On Again') built on Mar  4 2008 13:20:25
  12. Writing library                          : libebml v0.7.7 + libmatroska v0.8.1
  13. Attachments                              : MSYH.TTF / MSYH_chscht.ttf / MSYHBD.TTF / tahoma.ttf
  14. Video
  15. ID                                       : 1
  16. Format                                   : HEVC
  17. Format/Info                              : High Efficiency Video Coding
  18. Format profile                           : Main 10@L4@Main
  19. Codec ID                                 : V_MPEGH/ISO/HEVC
  20. Duration                                 : 1 h 27 min
  21. Bit rate                                 : 8 361 kb/s
  22. Width                                    : 1 916 pixels
  23. Height                                   : 816 pixels
  24. Display aspect ratio                     : 2.35:1
  25. Frame rate mode                          : Constant
  26. Frame rate                               : 24.000 FPS
  27. Color space                              : YUV
  28. Chroma subsampling                       : 4:2:0
  29. Bit depth                                : 10 bits
  30. Bits/(Pixel*Frame)                       : 0.223
  31. Stream size                              : 5.13 GiB (83%)
  32. Default                                  : Yes
  33. Forced                                   : No
  34. Audio
  35. ID                                       : 2
  36. Format                                   : DTS
  37. Format/Info                              : Digital Theater Systems
  38. Codec ID                                 : A_DTS
  39. Duration                                 : 1 h 27 min
  40. Bit rate mode                            : Constant
  41. Bit rate                                 : 1 509 kb/s
  42. Channel(s)                               : 6 channels
  43. Channel layout                           : C L R Ls Rs LFE
  44. Sampling rate                            : 48.0 kHz
  45. Frame rate                               : 93.750 FPS (512 SPF)
  46. Bit depth                                : 16 bits
  47. Compression mode                         : Lossy
  48. Stream size                              : 948 MiB (15%)
  49. Title                                    : 英语
  50. Language                                 : English
  51. Default                                  : Yes
  52. Forced                                   : No
  53. Statistics Tags Issue                    : mkvmerge v67.0.0 ('Under Stars') 64-bit 2022-05-31 00:48:30 / mkvmerge v2.2.0 ('Turn It On Again') built on Mar  4 2008 13:20:25 2022-06-17 10:35:23
  54. FromStats_BitRate                        : 1508999
  55. FromStats_Duration                       : 01:27:52.502000000
  56. FromStats_FrameCount                     : 494297
  57. FromStats_StreamSize                     : 994525632
  58. Text #1
  59. ID                                       : 3
  60. Format                                   : ASS
  61. Codec ID                                 : S_TEXT/ASS
  62. Codec ID/Info                            : Advanced Sub Station Alpha
  63. Compression mode                         : Lossless
  64. Title                                    : chs
  65. Language                                 : Chinese
  66. Default                                  : Yes
  67. Forced                                   : No
  68. Text #2
  69. ID                                       : 4
  70. Format                                   : ASS
  71. Codec ID                                 : S_TEXT/ASS
  72. Codec ID/Info                            : Advanced Sub Station Alpha
  73. Compression mode                         : Lossless
  74. Title                                    : cht
  75. Language                                 : Chinese
  76. Default                                  : No
  77. Forced                                   : No





此处一般会放置磁力链或种子下载链接,不过此链接需要注册会员才能看到,点击“立即注册”
磁力链下载【下载链接仅对注册会员开放,登陆后可见】
BT9527电影天堂 1、BT9527电影天堂提供的BT文件均来源于互联网抓取,只供网友学习交流、技术提升使用。
2、我们遵守BitTorrent点对点协议原则,任何版权问题请联系原资源发布商,我们不处理任何版权纠纷,谢谢!如有争议请联系邮箱:BT9527#hotmail.com(#换成@)
3、如果您发现某页面或地址有错误,请联系站长邮箱BT9527#hotmail.com(#换成@),我们会尽快处理。您的热心是对BT9527电影天堂最大的支持。
4、本站建议去正规影院观看电影以支持电影行业发展。
最新回复 (0)

你可以在 登录 or 注册 后,对此帖发表评论!

返回
发新帖