血钻[国英多音轨/简繁字幕].Blood.Diamond.2006.1080p.BluRay.DD5.1.2Audio.x265-10bit-ENTHD 10.52GB

版主小s 7天前 46

✔资源类型:暂未分类   ✔电影年份:2006   ✔电影地区:欧美   ✔电影分类:剧情

◎译  名 血钻 / 血钻石(台) / 血腥钻石 / 滴血钻石
◎片  名 Blood Diamond
◎年  代 2006
◎产  地 美国 / 德国 / 英国
◎类  别 剧情 / 惊悚 / 冒险
◎语  言 英语 / 门德语 / 南非语
◎上映日期 2006-12-08(美国)
◎IMDb链接 https://www.imdb.com/title/tt0450259/
◎豆瓣评分 8.7/10 (345943人评价)
◎豆瓣链接 https://movie.douban.com/subject/1428175/
◎片  长 143 分钟
◎导  演 爱德华·兹威克 Edward Zwick (id:1027877)
◎编  剧 查尔斯·里维特 Charles Leavitt (id:1331327)
       C·盖比·米切尔 C. Gaby Mitchell (id:1441005)
◎演  员 莱昂纳多·迪卡普里奥 Leonardo DiCaprio (id:1041029)
       杰曼·翰苏 Djimon Hounsou (id:1044880)
       詹妮弗·康纳利 Jennifer Connelly (id:1016673)
       阿诺德·沃斯洛 Arnold Vosloo (id:1017973)
       大卫·哈雷伍德 David Harewood (id:1094293)
       吉米·米斯特雷 Jimi Mistry (id:1314689)
       麦克·辛 Michael Sheen (id:1004566)
       史蒂芬·柯林斯 Stephen Collins (id:1027854)
       阿金·奥莫托索 Akin Omotoso (id:1347945)
       阿德托库姆布斯·麦克马克 Adetokumboh M'Cormack (id:1324856)
       Antony Coleman Antony Coleman (id:1303709)
       Paula Weinstein Paula Weinstein (id:1300618)
       Len Amato Len Amato (id:1277135)
       爱德华·兹威克 Edward Zwick (id:1027877)
       詹姆斯·纽顿·霍华德 James Newton Howard (id:1019135)
       斯蒂夫·罗森布朗 Steven Rosenblum (id:1296094)
       彼得·文汉姆 Peter Wenham (id:1300702)
       Ray Chan Ray Chan (id:1280437)
       Daran Fulham Daran Fulham (id:1307944)
       Dan Weil Dan Weil (id:1300593)
       恩吉拉·迪克森 Ngila Dickson (id:1282410)
       安妮·摩根 Anne Morgan (id:1292487)
       朱迪·金 Judy Chin (id:1280574)
       Sallie Jaye Sallie Jaye (id:1287636)
       西安·格里格 Sian Grigg (id:1285472)
       波莉·恩肖 Polly Earnshaw (id:1282946)
       Stuart Cripps Stuart Cripps (id:1302245)
       David S. Williams Jr. David S. Williams Jr. (id:1300940)
       Ken Wilder Ken Wilder (id:1300913)
       Robert Scifo Robert Scifo (id:1297060)
       威廉·梅萨 William Mesa (id:1291905)
       雷·麦金太尔 Ray McIntyre Jr. (id:1291625)
       蒂姆·克罗斯比 Tim Crosbie (id:1281511)
       约翰·科茨 John Coats (id:1280929)
       Thomas Boland Thomas Boland (id:1278906)

◎简  介
  九十年代非洲塞拉利昂,连连战火使这片土地饱受摧残,非法钻石贸易日益猖獗。                                    
                                阿彻(莱昂纳多?迪卡普里奥 饰)是一个地道的战争贩子,靠倒卖战区钻石为生,他在监狱中无意得知渔夫所罗门手里有极品粉钻。意识到这是自己离开非洲的机会,出狱后,他找到所罗门,准备和他一起找出钻石,离开非洲。                                    
                                所罗门是普通的渔民,因为内战和家人分离,被叛军强制开采钻石,他发现一颗极品粉钻,藏了起来;战乱来临,所罗门进了监狱,后被阿彻救出,并在战地记者麦迪?鲍文(珍妮弗?康纳利 饰)的帮助下,找到了失散的家人,此时,他的儿子迪亚却被叛军带走,生死未卜。                                    
                                悲愤的所罗门答应和阿彻合作,在叛军的控制范围内寻找钻石,并寻找儿子。                                    
                                两个截然不同的人,因为一颗血钻将命运联系在了一起。

◎获奖情况 (共6项)
  第79届奥斯卡金像奖 (2007)
  最佳男主角(提名)
   └──莱昂纳多·迪卡普里奥 (id:1041029)
  最佳男配角(提名)
   └──杰曼·翰苏 (id:1044880)
  最佳剪辑(提名)
   └──斯蒂夫·罗森布朗 (id:1296094)
  最佳混音(提名)
   └──伊万·夏罗克 (id:1148333)
  最佳音效剪辑(提名)
   └──朗·班德 (id:1278335)

  第64届金球奖 (2007)
  电影类 剧情片最佳男主角(提名)
   └──莱昂纳多·迪卡普里奥 (id:1041029)

  1. ##### MediaInfo ######
  2. General
  3. Unique ID                                : 291744275823551749726942168851540774341 (0xDB7BE7584EB4FFB5D9541D23513E8DC5)
  4. Complete name                            : Blood.Diamond.2006.1080p.BluRay.DD5.1.2Audio.x265-10bit-ENTHD.mkv
  5. Format                                   : Matroska
  6. Format version                           : Version 4
  7. File size                                : 10.5 GiB
  8. Duration                                 : 2 h 23 min
  9. Overall bit rate                         : 10.5 Mb/s
  10. Movie name                               : Blood Diamond 2006 1080p BluRay DD5.1 2Audio x265-10bit-HDS
  11. Encoded date                             : UTC 2022-06-18 07:05:52
  12. Writing application                      : mkvmerge v38.0.0 ('The Silent Type') 64-bit
  13. Writing library                          : libebml v1.3.9 + libmatroska v1.5.2
  14. Video
  15. ID                                       : 1
  16. Format                                   : HEVC
  17. Format/Info                              : High Efficiency Video Coding
  18. Format profile                           : Main 10@L5.1@High
  19. Codec ID                                 : V_MPEGH/ISO/HEVC
  20. Duration                                 : 2 h 23 min
  21. Bit rate                                 : 9 331 kb/s
  22. Width                                    : 1 920 pixels
  23. Height                                   : 798 pixels
  24. Display aspect ratio                     : 2.40:1
  25. Frame rate mode                          : Constant
  26. Frame rate                               : 23.976 (24000/1001/53354) FPS
  27. Color space                              : YUV
  28. Chroma subsampling                       : 4:2:0
  29. Bit depth                                : 10 bits
  30. Bits/(Pixel*Frame)                       : 0.254
  31. Stream size                              : 9.34 GiB (89%)
  32. Title                                    : yusuble@HDSky
  33. Writing library                          : x265 - H.265/HEVC codec
  34. Default                                  : Yes
  35. Forced                                   : No
  36. Audio #1
  37. ID                                       : 2
  38. Format                                   : AC-3
  39. Format/Info                              : Audio Coding 3
  40. Commercial name                          : Dolby Digital
  41. Codec ID                                 : A_AC3
  42. Duration                                 : 2 h 23 min
  43. Bit rate mode                            : Constant
  44. Bit rate                                 : 640 kb/s
  45. Channel(s)                               : 6 channels
  46. Channel layout                           : L R C LFE Ls Rs
  47. Sampling rate                            : 48.0 kHz
  48. Frame rate                               : 31.250 FPS (1536 SPF)
  49. Compression mode                         : Lossy
  50. Stream size                              : 656 MiB (6%)
  51. Title                                    : English
  52. Language                                 : English
  53. Service kind                             : Complete Main
  54. Default                                  : Yes
  55. Forced                                   : No
  56. Audio #2
  57. ID                                       : 3
  58. Format                                   : AC-3
  59. Format/Info                              : Audio Coding 3
  60. Commercial name                          : Dolby Digital
  61. Codec ID                                 : A_AC3
  62. Duration                                 : 2 h 23 min
  63. Bit rate mode                            : Constant
  64. Bit rate                                 : 448 kb/s
  65. Channel(s)                               : 6 channels
  66. Channel layout                           : L R C LFE Ls Rs
  67. Sampling rate                            : 48.0 kHz
  68. Frame rate                               : 31.250 FPS (1536 SPF)
  69. Compression mode                         : Lossy
  70. Stream size                              : 459 MiB (4%)
  71. Title                                    : Mandarin
  72. Language                                 : Chinese
  73. Service kind                             : Complete Main
  74. Default                                  : No
  75. Forced                                   : No
  76. Text #1
  77. ID                                       : 4
  78. Format                                   : PGS
  79. Muxing mode                              : zlib
  80. Codec ID                                 : S_HDMV/PGS
  81. Codec ID/Info                            : Picture based subtitle format used on BDs/HD-DVDs
  82. Duration                                 : 2 h 15 min
  83. Bit rate                                 : 51.2 kb/s
  84. Count of elements                        : 3803
  85. Stream size                              : 49.7 MiB (0%)
  86. Title                                    : CHS&ENG
  87. Language                                 : Chinese
  88. Default                                  : Yes
  89. Forced                                   : No
  90. Text #2
  91. ID                                       : 5
  92. Format                                   : PGS
  93. Muxing mode                              : zlib
  94. Codec ID                                 : S_HDMV/PGS
  95. Codec ID/Info                            : Picture based subtitle format used on BDs/HD-DVDs
  96. Duration                                 : 2 h 15 min
  97. Bit rate                                 : 51.5 kb/s
  98. Count of elements                        : 3803
  99. Stream size                              : 50.1 MiB (0%)
  100. Title                                    : CHT&ENG
  101. Language                                 : Chinese
  102. Default                                  : No
  103. Forced                                   : No
  104. Text #3
  105. ID                                       : 6
  106. Format                                   : PGS
  107. Muxing mode                              : zlib
  108. Codec ID                                 : S_HDMV/PGS
  109. Codec ID/Info                            : Picture based subtitle format used on BDs/HD-DVDs
  110. Duration                                 : 2 h 15 min
  111. Bit rate                                 : 34.5 kb/s
  112. Count of elements                        : 3803
  113. Stream size                              : 33.5 MiB (0%)
  114. Title                                    : CHS
  115. Language                                 : Chinese
  116. Default                                  : No
  117. Forced                                   : No
  118. Text #4
  119. ID                                       : 7
  120. Format                                   : PGS
  121. Muxing mode                              : zlib
  122. Codec ID                                 : S_HDMV/PGS
  123. Codec ID/Info                            : Picture based subtitle format used on BDs/HD-DVDs
  124. Duration                                 : 2 h 15 min
  125. Bit rate                                 : 34.8 kb/s
  126. Count of elements                        : 3803
  127. Stream size                              : 33.9 MiB (0%)
  128. Title                                    : CHT
  129. Language                                 : Chinese
  130. Default                                  : No
  131. Forced                                   : No
  132. Menu
  133. 00:00:00.000                             : en:Chapter 01
  134. 00:06:32.559                             : en:Chapter 02
  135. 00:08:57.537                             : en:Chapter 03
  136. 00:14:38.211                             : en:Chapter 04
  137. 00:18:05.251                             : en:Chapter 05
  138. 00:21:56.482                             : en:Chapter 06
  139. 00:27:35.988                             : en:Chapter 07
  140. 00:30:43.175                             : en:Chapter 08
  141. 00:34:48.086                             : en:Chapter 09
  142. 00:37:43.761                             : en:Chapter 10
  143. 00:41:20.812                             : en:Chapter 11
  144. 00:47:08.659                             : en:Chapter 12
  145. 00:50:19.683                             : en:Chapter 13
  146. 00:53:58.235                             : en:Chapter 14
  147. 00:57:38.622                             : en:Chapter 15
  148. 01:04:04.007                             : en:Chapter 16
  149. 01:08:51.461                             : en:Chapter 17
  150. 01:11:17.773                             : en:Chapter 18
  151. 01:16:19.909                             : en:Chapter 19
  152. 01:21:18.540                             : en:Chapter 20
  153. 01:24:27.229                             : en:Chapter 21
  154. 01:29:51.720                             : en:Chapter 22
  155. 01:34:16.985                             : en:Chapter 23
  156. 01:37:39.187                             : en:Chapter 24
  157. 01:43:13.020                             : en:Chapter 25
  158. 01:46:02.856                             : en:Chapter 26
  159. 01:50:56.984                             : en:Chapter 27
  160. 01:56:07.794                             : en:Chapter 28
  161. 01:59:04.471                             : en:Chapter 29
  162. 02:04:21.454                             : en:Chapter 30
  163. 02:08:59.065                             : en:Chapter 31
  164. 02:12:07.753                             : en:Chapter 32
  165. 02:14:56.922                             : en:Chapter 33





此处一般会放置磁力链或种子下载链接,不过此链接需要注册会员才能看到,点击“立即注册”
磁力链下载【下载链接仅对注册会员开放,登陆后可见】
BT9527电影天堂 1、BT9527电影天堂提供的BT文件均来源于互联网抓取,只供网友学习交流、技术提升使用。
2、我们遵守BitTorrent点对点协议原则,任何版权问题请联系原资源发布商,我们不处理任何版权纠纷,谢谢!如有争议请联系邮箱:BT9527#hotmail.com(#换成@)
3、如果您发现某页面或地址有错误,请联系站长邮箱BT9527#hotmail.com(#换成@),我们会尽快处理。您的热心是对BT9527电影天堂最大的支持。
4、本站建议去正规影院观看电影以支持电影行业发展。
最新回复 (0)

你可以在 登录 or 注册 后,对此帖发表评论!

返回
发新帖