卡罗尔[简体字幕].Carol.2015.BluRay.1080p.x265.10bit-MiniHD 8.39GB

版主小s 3月前 160

✔资源类型:暂未分类   ✔电影年份:2015   ✔电影地区:欧美   ✔电影分类:剧情

◎译  名 卡罗尔 / 因为爱你(台) / 卡露的情人(港) / 卡萝尔 / 盐的代价 / The Price of Salt
◎片  名 Carol
◎年  代 2015
◎产  地 英国 / 美国
◎类  别 剧情 / 爱情 / 同性
◎语  言 英语
◎上映日期 2015-05-17(戛纳电影节) / 2015-11-27(英国) / 2016-01-15(美国)
◎IMDb链接 https://www.imdb.com/title/tt2402927/
◎豆瓣评分 8.4/10 (260388人评价)
◎豆瓣链接 https://movie.douban.com/subject/10757577/
◎片  长 118分钟
◎导  演 托德·海因斯 Todd Haynes (id:1014069)
◎编  剧 菲丽丝·奈吉 Phyllis Nagy (id:1292882)
       派翠西亚·海史密斯 Patricia Highsmith (id:1014301)
◎演  员 凯特·布兰切特 Cate Blanchett (id:1054441)
       鲁妮·玛拉 Rooney Mara (id:1274969)
       凯尔·钱德勒 Kyle Chandler (id:1049607)
       杰克·莱西 Jake Lacy (id:1344101)
       莎拉·保罗森 Sarah Paulson (id:1036443)
       约翰·马加罗 John Magaro (id:1317515)
       科里·迈克尔·史密斯 Cory Michael Smith (id:1340548)
       凯文·克劳利 Kevin Crowley (id:1353790)
       凯瑞·布朗斯汀 Carrie Brownstein (id:1186322)
       赛迪·海姆 Sadie Heim (id:1443318)
       吉德雷·莫基利安妮特 Giedre Mockeliunaite (id:1434425)
       多萝西·伯温 Dorothy Berwin (id:1399753)
       卡特·伯韦尔 Carter Burwell (id:1041343)
       爱德华·拉奇曼 Edward Lachman (id:1002898)
       阿方索·贡萨尔维斯 Affonso Gon?alves (id:1471282)
       朱迪·贝克尔 Judy Becker (id:1335574)
       桑迪·鲍威尔 Sandy Powell (id:1128632)
       莫拉格·罗斯 Morag Ross (id:1296145)
       扎克·贾德森 Zack Judson (id:1411059)

◎简  介
  50年代的美国,年轻女子特芮丝(鲁妮·玛拉 饰)在纽约百货公司担任售货员,但心中向往的却是摄影师工作。某日,一位美丽优雅的金发贵妇卡罗尔(凯特·布兰切特 饰)来到百货公司购买圣诞节礼物,结果和特芮丝一见投缘。两人相识后特芮丝得知原来卡罗尔有一个女儿,而且正和丈夫哈吉(凯尔·钱德勒 饰)办理离婚手续。通过书信来往、约会相处以及公路旅行,特芮丝和卡罗尔发现彼此就是自己的真爱,然而在当时社会这是不被允许的。特芮丝的男友认为她只是一时迷惑,卡罗尔的丈夫则请私家侦探调查取证,希望在离婚诉讼中让她一无所有。考验两位女性的时刻终于到来了:在社会压力下她们能否坚守内心、不计代价的把感情路走到底?                                       
                                    《卡罗尔》是美国著名独立导演托德·海恩斯的新作,入围第68届戛纳电影节主竞赛单元,获得最佳女主角奖。电影根据派翠西亚·海史密斯在1952年匿名发表的中篇女同小说《盐的代价》...

◎获奖情况 (共67项)
  第88届奥斯卡金像奖 (2016)
  最佳女主角(提名)
   └──凯特·布兰切特 (id:1054441)
  最佳女配角(提名)
   └──鲁妮·玛拉 (id:1274969)
  最佳改编剧本(提名)
   └──菲丽丝·奈吉 (id:1292882)
  最佳摄影(提名)
   └──爱德华·拉奇曼 (id:1002898)
  最佳服装设计(提名)
   └──桑迪·鲍威尔 (id:1128632)
  最佳原创配乐(提名)
   └──卡特·伯韦尔 (id:1041343)

  第68届戛纳电影节 (2015)
  主竞赛单元 金棕榈奖(提名)
   └──托德·海因斯 (id:1014069)
  主竞赛单元 最佳女演员
   └──鲁妮·玛拉 (id:1274969)
  酷儿棕榈奖
   └──托德·海因斯 (id:1014069)

  第73届金球奖 (2016)
  电影类 最佳剧情片(提名)
  电影类 最佳导演(提名)
   └──托德·海因斯 (id:1014069)
  电影类 剧情片最佳女主角(提名)
  电影类 最佳原创配乐(提名)

  第69届英国电影学院奖 (2016)
  电影奖 最佳影片(提名)
  电影奖 最佳导演(提名)
   └──托德·海因斯 (id:1014069)
  电影奖 最佳女主角(提名)
   └──凯特·布兰切特 (id:1054441)
  电影奖 最佳女配角(提名)
   └──鲁妮·玛拉 (id:1274969)
  电影奖 最佳改编剧本(提名)
   └──菲丽丝·奈吉 (id:1292882)
  电影奖 最佳摄影(提名)
   └──爱德华·拉奇曼 (id:1002898)
  电影奖 最佳化妆/发型(提名)
  电影奖 最佳服装设计(提名)
   └──桑迪·鲍威尔 (id:1128632)
  电影奖 最佳艺术指导(提名)

  第22届美国演员工会奖 (2016)
  电影奖 最佳女主角(提名)
   └──凯特·布兰切特 (id:1054441)
  电影奖 最佳女配角(提名)
   └──鲁妮·玛拉 (id:1274969)

  第68届美国编剧工会奖 (2016)
  电影奖 最佳改编剧本(提名)
   └──菲丽丝·奈吉 (id:1292882)

  第30届美国摄影协会奖 (2016)
  电影长片最佳摄影(提名)
   └──爱德华·拉奇曼 (id:1002898)

  第18届美国服装设计工会奖 (2016)
  年代电影最佳服装设计(提名)

  第81届纽约影评人协会奖 (2015)
  最佳影片
  最佳导演
   └──托德·海因斯 (id:1014069)
  最佳剧本
  最佳摄影

  第21届美国评论家选择电影奖 (2016)
  最佳影片(提名)
  最佳导演(提名)
   └──托德·海因斯 (id:1014069)
  最佳女主角(提名)
   └──凯特·布兰切特 (id:1054441)
  最佳女配角(提名)
   └──鲁妮·玛拉 (id:1274969)
  最佳摄影(提名)
   └──爱德华·拉奇曼 (id:1002898)
  最佳配乐(提名)
  最佳美术指导(提名)
  最佳服装设计(提名)
  最佳发型化妆(提名)

  第31届美国独立精神奖 (2016)
  最佳影片(提名)
  最佳导演(提名)
   └──托德·海因斯 (id:1014069)
  最佳女主角(提名)
  最佳剧本(提名)
   └──菲丽丝·奈吉 (id:1292882)
  最佳摄影
   └──爱德华·拉奇曼 (id:1002898)

  第16届美国电影学会奖 (2015)
  年度佳片

  第20届金卫星奖 (2016)
  电影部门 最佳原创配乐

  第50届美国国家影评人协会奖 (2016)
  最佳导演
   └──托德·海因斯 (id:1014069)
  最佳摄影
   └──爱德华·拉奇曼 (id:1002898)

  第36届波士顿影评人协会奖 (2015)
  最佳导演
   └──托德·海因斯 (id:1014069)
  最佳摄影

  第41届洛杉矶影评人协会奖 (2015)
  最佳配乐
   └──卡特·伯韦尔 (id:1041343)

  第19届美国在线影评人协会奖 (2015)
  最佳影片(提名)
  最佳导演(提名)
   └──托德·海因斯 (id:1014069)
  最佳女主角
   └──凯特·布兰切特 (id:1054441)
  最佳女配角
   └──鲁妮·玛拉 (id:1274969)
  最佳改编剧本
   └──菲丽丝·奈吉 (id:1292882)
  最佳摄影(提名)
   └──爱德华·拉奇曼 (id:1002898)

  第2届豆瓣电影年度榜单 (2015)
  评分最高的外语电影(提名)
  年度LGBT电影

  第6届豆瓣电影鑫像奖 (2016)
  鑫豆单元 最佳影片(外语)(提名)
  鑫豆单元 最佳导演(外语)(提名)
   └──托德·海因斯 (id:1014069)
  鑫豆单元 最佳女演员(外语)
   └──凯特·布兰切特 (id:1054441)
  鑫豆单元 最佳女演员(外语)(提名)
   └──鲁妮·玛拉 (id:1274969)
  鑫豆单元 最佳爱情片
  鑫豆单元 最佳同性(LGBT)电影
  鑫豆单元 最佳配乐(提名)

  1. ##### MediaInfo ######
  2. General
  3. Unique ID                                : 88344079621392251344447581551637247286 (0x42767369EFD0B1134E40514E069B3536)
  4. Complete name                            : Carol.2015.BluRay.1080p.x265.10bit-MiniHD.mkv
  5. Format                                   : Matroska
  6. Format version                           : Version 4
  7. File size                                : 8.39 GiB
  8. Duration                                 : 1 h 58 min
  9. Overall bit rate                         : 10.1 Mb/s
  10. Encoded date                             : UTC 2018-08-05 08:03:05
  11. Writing application                      : mkvmerge v24.0.0 ('Beyond The Pale') 64-bit
  12. Writing library                          : libebml v1.3.6 + libmatroska v1.4.9
  13. Video
  14. ID                                       : 1
  15. Format                                   : HEVC
  16. Format/Info                              : High Efficiency Video Coding
  17. Format profile                           : Main 10@L4@Main
  18. Codec ID                                 : V_MPEGH/ISO/HEVC
  19. Duration                                 : 1 h 58 min
  20. Bit rate                                 : 9 456 kb/s
  21. Width                                    : 1 920 pixels
  22. Height                                   : 1 036 pixels
  23. Display aspect ratio                     : 1.85:1
  24. Frame rate mode                          : Constant
  25. Frame rate                               : 23.976 (24000/1001/53354) FPS
  26. Color space                              : YUV
  27. Chroma subsampling                       : 4:2:0
  28. Bit depth                                : 10 bits
  29. Bits/(Pixel*Frame)                       : 0.198
  30. Stream size                              : 7.83 GiB (93%)
  31. Writing library                          : x265 2.8+1-478bfe2b7673:[Windows][GCC 7.3.0][64 bit] 10bit
  32. Encoding settings                        : cpuid=533541111039 / frame-threads=4 / numa-pools=16 / wpp / no-pmode / no-pme / no-psnr / no-ssim / log-level=2 / input-csp=1 / input-res=1920x1036 / interlace=0 / total-frames=170446 / level-idc=0 / high-tier=1 / uhd-bd=0 / ref=5 / no-allow-non-conformance / no-repeat-headers / annexb / no-aud / no-hrd / info / hash=0 / no-temporal-layers / no-open-gop / min-keyint=1 / keyint=360 / gop-lookahead=0 / bframes=8 / b-adapt=2 / b-pyramid / bframe-bias=0 / rc-lookahead=60 / lookahead-slices=4 / NTMzNTQ=uuDQuD2mJt9fsCf / scenecut=40 / radl=0 / no-intra-refresh / ctu=32 / min-cu-size=8 / rect / no-amp / max-tu-size=16 / tu-inter-depth=2 / tu-intra-depth=2 / limit-tu=4 / rdoq-level=1 / dynamic-rd=0.00 / no-ssim-rd / signhide / no-tskip / nr-intra=0 / nr-inter=0 / no-constrained-intra / no-strong-intra-smoothing / max-merge=3 / limit-refs=2 / limit-modes / me=3 / subme=5 / merange=25 / temporal-mvp / weightp / weightb / no-analyze-src-pics / deblock=-1:-1 / no-sao / no-sao-non-deblock / rd=4 / no-early-skip / rskip / no-fast-intra / no-tskip-fast / no-cu-lossless / b-intra / no-splitrd-skip / rdpenalty=1 / psy-rd=2.00 / psy-rdoq=5.00 / no-rd-refine / no-lossless / cbqpoffs=-2 / crqpoffs=-2 / rc=crf / crf=21.0 / qcomp=0.65 / qpstep=4 / stats-write=0 / stats-read=0 / ipratio=1.40 / pbratio=1.30 / aq-mode=1 / aq-strength=0.90 / cutree / zone-count=0 / no-strict-cbr / qg-size=16 / no-rc-grain / qpmax=69 / qpmin=0 / no-const-vbv / sar=1 / overscan=0 / videoformat=5 / range=0 / colorprim=1 / transfer=2 / colormatrix=2 / chromaloc=0 / display-window=0 / max-cll=0,0 / min-luma=0 / max-luma=1023 / log2-max-poc-lsb=8 / vui-timing-info / vui-hrd-info / slices=1 / no-opt-qp-pps / no-opt-ref-list-length-pps / no-multi-pass-opt-rps / scenecut-bias=0.05 / no-opt-cu-delta-qp / no-aq-motion / no-hdr / no-hdr-opt / no-dhdr10-opt / no-idr-recovery-sei / analysis-reuse-level=5 / scale-factor=0 / refine-intra=0 / refine-inter=0 / refine-mv=0 / no-limit-sao / ctu-info=0 / no-lowpass-dct / refine-mv-type=0 / copy-pic=1 / max-ausize-factor=1.0 / no-dynamic-refine / no-single-sei
  33. Default                                  : Yes
  34. Forced                                   : No
  35. Color range                              : Limited
  36. Color primaries                          : BT.709
  37. Audio
  38. ID                                       : 2
  39. Format                                   : AC-3
  40. Format/Info                              : Audio Coding 3
  41. Commercial name                          : Dolby Digital
  42. Codec ID                                 : A_AC3
  43. Duration                                 : 1 h 58 min
  44. Bit rate mode                            : Constant
  45. Bit rate                                 : 640 kb/s
  46. Channel(s)                               : 6 channels
  47. Channel layout                           : L R C LFE Ls Rs
  48. Sampling rate                            : 48.0 kHz
  49. Frame rate                               : 31.250 FPS (1536 SPF)
  50. Compression mode                         : Lossy
  51. Stream size                              : 542 MiB (6%)
  52. Language                                 : English
  53. Service kind                             : Complete Main
  54. Default                                  : Yes
  55. Forced                                   : No
  56. Text #1
  57. ID                                       : 3
  58. Format                                   : PGS
  59. Muxing mode                              : zlib
  60. Codec ID                                 : S_HDMV/PGS
  61. Codec ID/Info                            : Picture based subtitle format used on BDs/HD-DVDs
  62. Duration                                 : 1 h 51 min
  63. Bit rate                                 : 43.2 kb/s
  64. Count of elements                        : 3243
  65. Stream size                              : 34.5 MiB (0%)
  66. Title                                    : 简英
  67. Language                                 : Chinese
  68. Default                                  : Yes
  69. Forced                                   : No
  70. Text #2
  71. ID                                       : 4
  72. Format                                   : PGS
  73. Muxing mode                              : zlib
  74. Codec ID                                 : S_HDMV/PGS
  75. Codec ID/Info                            : Picture based subtitle format used on BDs/HD-DVDs
  76. Duration                                 : 1 h 51 min
  77. Bit rate                                 : 25.8 kb/s
  78. Count of elements                        : 3244
  79. Stream size                              : 20.6 MiB (0%)
  80. Title                                    : 简中
  81. Language                                 : Chinese
  82. Default                                  : No
  83. Forced                                   : No
  84. Menu
  85. 00:00:00.000                             : en:00:00:00.000 / en:第 01 章
  86. 00:05:59.150                             : en:00:05:59.150
  87. 00:13:10.039                             : en:00:13:10.039
  88. 00:19:29.543                             : en:00:19:29.543
  89. 00:25:16.640                             : en:00:25:16.640
  90. 00:30:49.514                             : en:00:30:49.514
  91. 00:37:59.652                             : en:00:37:59.652
  92. 00:45:16.422                             : en:00:45:16.422
  93. 00:52:17.217                             : en:00:52:17.217
  94. 00:59:22.476                             : en:00:59:22.476
  95. 01:06:21.728                             : en:01:06:21.728
  96. 01:13:15.641                             : en:01:13:15.641
  97. 01:18:26.744                             : en:01:18:26.744
  98. 01:24:30.774                             : en:01:24:30.774
  99. 01:31:54.759                             : en:01:31:54.759
  100. 01:38:33.699                             : en:01:38:33.699
  101. 01:44:20.588                             : en:01:44:20.588
  102. 01:48:59.700                             : en:01:48:59.700
  103. 01:52:14.603                             : en:01:52:14.603
  104. 01:54:27.986                             : en:01:54:27.986





此处一般会放置磁力链或种子下载链接,不过此链接需要注册会员才能看到,点击“立即注册”
磁力链下载【下载链接仅对注册会员开放,登陆后可见】
BT9527电影天堂 1、BT9527电影天堂提供的BT文件均来源于互联网抓取,只供网友学习交流、技术提升使用。
2、我们遵守BitTorrent点对点协议原则,任何版权问题请联系原资源发布商,我们不处理任何版权纠纷,谢谢!如有争议请联系邮箱:BT9527#hotmail.com(#换成@)
3、如果您发现某页面或地址有错误,请联系站长邮箱BT9527#hotmail.com(#换成@),我们会尽快处理。您的热心是对BT9527电影天堂最大的支持。
4、本站建议去正规影院观看电影以支持电影行业发展。
最新回复 (0)

你可以在 登录 or 注册 后,对此帖发表评论!

返回