十二宫[国英多音轨/简繁英字幕].Zodiac.2007.Director's.Cut.BluRay.1080p.x265.10bit.3Audio-MiniHD 7.71GB

版主小s 3月前 242

✔资源类型:暂未分类   ✔电影年份:2007   ✔电影地区:欧美   ✔电影分类:剧情

◎译  名 十二宫 / 索命黄道带(台) / 杀谜藏(港) / 杀人十二星座 / 杀人十二宫 / 十二宫杀手
◎片  名 Zodiac
◎年  代 2007
◎产  地 美国
◎类  别 剧情 / 悬疑 / 惊悚 / 传记 / 犯罪
◎语  言 英语
◎上映日期 2007-03-02(美国)
◎IMDb链接 https://www.imdb.com/title/tt0443706/
◎豆瓣评分 7.5/10 (179954人评价)
◎豆瓣链接 https://movie.douban.com/subject/1781126/
◎片  长 157 分钟
◎导  演 大卫·芬奇 David Fincher (id:1012521)
◎编  剧 詹姆斯·范德比尔特 James Vanderbilt (id:1321383)
       罗伯特·格雷史密斯 Robert Graysmith (id:1050671)
◎演  员 杰克·吉伦哈尔 Jake Gyllenhaal (id:1048002)
       马克·鲁弗洛 Mark Ruffalo (id:1040505)
       安东尼·爱德华兹 Anthony Edwards (id:1055414)
       小罗伯特·唐尼 Robert Downey Jr. (id:1016681)
       布莱恩·考克斯 Brian Cox (id:1019027)
       约翰·卡洛·林奇 John Carroll Lynch (id:1025224)
       里奇蒙德·阿奎特 Richmond Arquette (id:1059818)
       鲍勃·斯蒂芬森 Bob Stephenson (id:1159961)
       约翰·莱西 John Lacy (id:1107701)
       科洛·塞维尼 Chlo? Sevigny (id:1040533)
       艾德·塞特拉基安 Ed Setrakian (id:1140171)
       约翰·盖兹 John Getz (id:1027895)
       约翰·特里 John Terry (id:1153230)
       坎迪·克拉克 Candy Clark (id:1019136)
       伊莱亚斯·科泰斯 Elias Koteas (id:1031868)
       吉米·辛普森 Jimmi Simpson (id:1040576)
       德蒙特·莫罗尼 Dermot Mulroney (id:1040534)
       克里·杜瓦尔 Clea DuVall (id:1027191)
       大卫·李·史密斯 David Lee Smith (id:1149041)
       亚当·戈德堡 Adam Goldberg (id:1040542)
       扎克·格雷尼尔 Zach Grenier (id:1099400)
       菲利普·贝克·霍尔 Philip Baker Hall (id:1049779)
       唐纳尔·罗格 Donal Logue (id:1031962)
       詹姆斯·勒格罗 James LeGros (id:1055191)
       保罗·舒尔茨 Paul Schulze (id:1320838)
       杰弗里·丹尼尔·菲利普斯 Jeffrey Daniel Phillips (id:1294459)
       安娜·卡塔莉娜 Anna Katarina (id:1391656)
       J.帕特里克·麦克康尔马克 J. Patrick McCormack (id:1321096)
       卡休斯·威利斯 Cassius Willis (id:1308959)
       米歇尔·法兰库尔 Michel Francoeur (id:1405422)
       汤姆·维里卡 Tom Verica (id:1045108)
       切安·查芬 Ceán Chaffin (id:1009978)
       哈里斯·萨维德斯 Harris Savides (id:1027491)
       安格斯·瓦尔 Angus Wall (id:1300324)
       维克多·J·佐尔福 Victor J. Zolfo (id:1301778)
       Keith P. Cunningham Keith P. Cunningham (id:1281607)
       唐纳德·格雷厄姆·伯特 Donald Graham Burt (id:1279698)
       Natasha Ladek Natasha Ladek (id:1289234)
       开尔文·特拉罕 Kelvin R. Trahan (id:1299467)
       Sally Sue Beisel Sally Sue Beisel (id:1278236)
       Mary Ellen Woods Mary Ellen Woods (id:1301249)
       克里斯托弗·埃文斯 Christopher Evans (id:1283336)
       克莱格·巴朗 Craig Barron (id:1277981)
       Steven Messing Steven Messing (id:1291909)
       斯科特·埃德斯坦 Scott Edelstein (id:1414097)
       Charlie Iturriaga Charlie Iturriaga (id:1307761)
       Karl Denham Karl Denham (id:1276483)
       Glenn Cotter Glenn Cotter (id:1302309)
       Lisa Beroud Lisa Beroud (id:1305470)
       埃里克·巴尔巴 Eric Barba (id:1277851)
       Janelle Croshaw Janelle Croshaw (id:1311237)
       奥·布里克 Ed Ulbrich (id:1410103)
       Ken Rogerson Ken Rogerson (id:1295933)

◎简  介
  二十世纪70年代,旧金山出现了一个自称“十二宫”的杀人狂,杀人后,向媒体寄一封信,留下密码、线索,向警方挑衅,多次的阴差阳错使案件陷入僵局,警方渐渐束手无策。连环杀人案件也引起了《旧金山纪事报》的记者罗伯特(杰克?格兰恩哈尔 饰)和保罗(小罗伯特?唐尼 饰)的注意,他们在警察大卫(马克?普法洛 饰)的帮助下,开始调查这一系列的连环凶杀案件,在和“十二宫”杀手斗志斗勇的同时,他们个人的生活也面临了极大的挑战。

◎获奖情况 (共1项)
  第60届戛纳电影节 (2007)
  主竞赛单元 金棕榈奖(提名)
   └──大卫·芬奇 (id:1012521)

  1. ##### MediaInfo ######
  2. General
  3. Unique ID                                : 130361626152428375816932154487686395242 (0x6212BC669A5E7F06D42C468D7175756A)
  4. Complete name                            : Zodiac.2007.Director's.Cut.BluRay.1080p.x265.10bit.3Audio-MiniHD.mkv
  5. Format                                   : Matroska
  6. Format version                           : Version 4
  7. File size                                : 7.71 GiB
  8. Duration                                 : 2 h 42 min
  9. Overall bit rate                         : 6 785 kb/s
  10. Encoded date                             : UTC 2018-12-09 07:18:20
  11. Writing application                      : mkvmerge v29.0.0 ('Like It Or Not') 64-bit
  12. Writing library                          : libebml v1.3.6 + libmatroska v1.4.9
  13. Video
  14. ID                                       : 1
  15. Format                                   : HEVC
  16. Format/Info                              : High Efficiency Video Coding
  17. Format profile                           : Main 10@L4@High
  18. Codec ID                                 : V_MPEGH/ISO/HEVC
  19. Duration                                 : 2 h 42 min
  20. Bit rate                                 : 5 317 kb/s
  21. Width                                    : 1 920 pixels
  22. Height                                   : 800 pixels
  23. Display aspect ratio                     : 2.40:1
  24. Frame rate mode                          : Constant
  25. Frame rate                               : 23.976 (24000/1001/53354) FPS
  26. Color space                              : YUV
  27. Chroma subsampling                       : 4:2:0
  28. Bit depth                                : 10 bits
  29. Bits/(Pixel*Frame)                       : 0.144
  30. Stream size                              : 6.04 GiB (78%)
  31. Writing library                          : x265 2.9+4-471726d3a046:[Windows][GCC 8.2.0][64 bit] 10bit
  32. Encoding settings                        : cpuid=533541111039 / frame-threads=3 / numa-pools=8 / wpp / no-pmode / no-pme / no-psnr / no-ssim / log-level=2 / csv / csv-log-level=0 / input-csp=1 / input-res=1920x800 / interlace=0 / total-frames=233898 / level-idc=0 / high-tier=1 / uhd-bd=0 / ref=5 / no-allow-non-conformance / no-repeat-headers / annexb / no-aud / no-hrd / info / hash=0 / no-temporal-layers / no-open-gop / min-keyint=1 / keyint=360 / gop-lookahead=0 / bframes=8 / b-adapt=2 / b-pyramid / bframe-bias=0 / rc-lookahead=48 / lookahead-slices=4 / NTMzNTQ=uuDQuD2mJt9fsCf / scenecut=40 / radl=0 / no-intra-refresh / ctu=32 / min-cu-size=8 / no-rect / no-amp / max-tu-size=16 / tu-inter-depth=2 / tu-intra-depth=2 / limit-tu=4 / rdoq-level=1 / dynamic-rd=0.00 / no-ssim-rd / signhide / no-tskip / nr-intra=0 / nr-inter=0 / no-constrained-intra / no-strong-intra-smoothing / max-merge=3 / limit-refs=2 / limit-modes / me=3 / subme=5 / merange=25 / temporal-mvp / weightp / weightb / no-analyze-src-pics / deblock=-1:-1 / no-sao / no-sao-non-deblock / rd=4 / no-early-skip / no-rskip / no-fast-intra / no-tskip-fast / no-cu-lossless / b-intra / no-splitrd-skip / rdpenalty=1 / psy-rd=2.00 / psy-rdoq=5.00 / no-rd-refine / no-lossless / cbqpoffs=-3 / crqpoffs=-3 / rc=crf / crf=17.0 / qcomp=0.70 / qpstep=4 / stats-write=0 / stats-read=0 / vbv-maxrate=30000 / vbv-bufsize=35000 / vbv-init=0.9 / crf-max=0.0 / crf-min=0.0 / ipratio=1.40 / pbratio=1.30 / aq-mode=2 / aq-strength=0.90 / cutree / zone-count=0 / no-strict-cbr / qg-size=16 / no-rc-grain / qpmax=69 / qpmin=0 / no-const-vbv / sar=0 / overscan=0 / videoformat=5 / range=0 / colorprim=1 / transfer=2 / colormatrix=2 / chromaloc=0 / display-window=0 / max-cll=0,0 / min-luma=0 / max-luma=1023 / log2-max-poc-lsb=8 / vui-timing-info / vui-hrd-info / slices=1 / no-opt-qp-pps / no-opt-ref-list-length-pps / no-multi-pass-opt-rps / scenecut-bias=0.05 / no-opt-cu-delta-qp / no-aq-motion / no-hdr / no-hdr-opt / no-dhdr10-opt / no-idr-recovery-sei / analysis-reuse-level=5 / scale-factor=0 / refine-intra=0 / refine-inter=0 / refine-mv=0 / no-limit-sao / ctu-info=0 / no-lowpass-dct / refine-mv-type=0 / copy-pic=1 / max-ausize-factor=1.0 / no-dynamic-refine / no-single-sei
  33. Default                                  : Yes
  34. Forced                                   : No
  35. Color range                              : Limited
  36. Color primaries                          : BT.709
  37. Audio #1
  38. ID                                       : 2
  39. Format                                   : AC-3
  40. Format/Info                              : Audio Coding 3
  41. Commercial name                          : Dolby Digital
  42. Codec ID                                 : A_AC3
  43. Duration                                 : 2 h 42 min
  44. Bit rate mode                            : Constant
  45. Bit rate                                 : 640 kb/s
  46. Channel(s)                               : 6 channels
  47. Channel layout                           : L R C LFE Ls Rs
  48. Sampling rate                            : 48.0 kHz
  49. Frame rate                               : 31.250 FPS (1536 SPF)
  50. Compression mode                         : Lossy
  51. Stream size                              : 744 MiB (9%)
  52. Title                                    : 英语
  53. Language                                 : English
  54. Service kind                             : Complete Main
  55. Default                                  : Yes
  56. Forced                                   : No
  57. Audio #2
  58. ID                                       : 3
  59. Format                                   : AC-3
  60. Format/Info                              : Audio Coding 3
  61. Commercial name                          : Dolby Digital
  62. Codec ID                                 : A_AC3
  63. Duration                                 : 2 h 42 min
  64. Bit rate mode                            : Constant
  65. Bit rate                                 : 384 kb/s
  66. Channel(s)                               : 6 channels
  67. Channel layout                           : L R C LFE Ls Rs
  68. Sampling rate                            : 48.0 kHz
  69. Frame rate                               : 31.250 FPS (1536 SPF)
  70. Compression mode                         : Lossy
  71. Delay relative to video                  : 1 ms
  72. Stream size                              : 447 MiB (6%)
  73. Title                                    : 中录京译国配
  74. Language                                 : Chinese
  75. Service kind                             : Complete Main
  76. Default                                  : No
  77. Forced                                   : No
  78. Audio #3
  79. ID                                       : 4
  80. Format                                   : AC-3
  81. Format/Info                              : Audio Coding 3
  82. Commercial name                          : Dolby Digital
  83. Codec ID                                 : A_AC3
  84. Duration                                 : 2 h 42 min
  85. Bit rate mode                            : Constant
  86. Bit rate                                 : 224 kb/s
  87. Channel(s)                               : 2 channels
  88. Channel layout                           : L R
  89. Sampling rate                            : 48.0 kHz
  90. Frame rate                               : 31.250 FPS (1536 SPF)
  91. Compression mode                         : Lossy
  92. Stream size                              : 261 MiB (3%)
  93. Title                                    : 东影上译国配
  94. Language                                 : Chinese
  95. Service kind                             : Complete Main
  96. Default                                  : No
  97. Forced                                   : No
  98. Text #1
  99. ID                                       : 5
  100. Format                                   : PGS
  101. Muxing mode                              : zlib
  102. Codec ID                                 : S_HDMV/PGS
  103. Codec ID/Info                            : Picture based subtitle format used on BDs/HD-DVDs
  104. Duration                                 : 2 h 37 min
  105. Bit rate                                 : 53.8 kb/s
  106. Count of elements                        : 5186
  107. Stream size                              : 60.5 MiB (1%)
  108. Title                                    : 英文字幕
  109. Language                                 : English
  110. Default                                  : No
  111. Forced                                   : No
  112. Text #2
  113. ID                                       : 6
  114. Format                                   : PGS
  115. Muxing mode                              : zlib
  116. Codec ID                                 : S_HDMV/PGS
  117. Codec ID/Info                            : Picture based subtitle format used on BDs/HD-DVDs
  118. Duration                                 : 2 h 39 min
  119. Bit rate                                 : 82.9 kb/s
  120. Count of elements                        : 5442
  121. Stream size                              : 94.4 MiB (1%)
  122. Title                                    : 简英字幕
  123. Language                                 : Chinese
  124. Default                                  : Yes
  125. Forced                                   : No
  126. Text #3
  127. ID                                       : 7
  128. Format                                   : PGS
  129. Muxing mode                              : zlib
  130. Codec ID                                 : S_HDMV/PGS
  131. Codec ID/Info                            : Picture based subtitle format used on BDs/HD-DVDs
  132. Duration                                 : 2 h 39 min
  133. Bit rate                                 : 83.7 kb/s
  134. Count of elements                        : 5442
  135. Stream size                              : 95.3 MiB (1%)
  136. Title                                    : 繁英字幕
  137. Language                                 : Chinese
  138. Default                                  : No
  139. Forced                                   : No
  140. Text #4
  141. ID                                       : 8
  142. Format                                   : PGS
  143. Muxing mode                              : zlib
  144. Codec ID                                 : S_HDMV/PGS
  145. Codec ID/Info                            : Picture based subtitle format used on BDs/HD-DVDs
  146. Duration                                 : 2 h 39 min
  147. Bit rate                                 : 76.0 kb/s
  148. Count of elements                        : 6661
  149. Stream size                              : 86.5 MiB (1%)
  150. Title                                    : 东影上译国配字幕
  151. Language                                 : Chinese
  152. Default                                  : No
  153. Forced                                   : No
  154. Text #5
  155. ID                                       : 9
  156. Format                                   : PGS
  157. Muxing mode                              : zlib
  158. Codec ID                                 : S_HDMV/PGS
  159. Codec ID/Info                            : Picture based subtitle format used on BDs/HD-DVDs
  160. Duration                                 : 2 h 39 min
  161. Bit rate                                 : 52.8 kb/s
  162. Count of elements                        : 5460
  163. Stream size                              : 60.0 MiB (1%)
  164. Title                                    : 法文字幕
  165. Language                                 : French
  166. Default                                  : No
  167. Forced                                   : No
  168. Text #6
  169. ID                                       : 10
  170. Format                                   : PGS
  171. Muxing mode                              : zlib
  172. Codec ID                                 : S_HDMV/PGS
  173. Codec ID/Info                            : Picture based subtitle format used on BDs/HD-DVDs
  174. Duration                                 : 2 h 39 min
  175. Bit rate                                 : 53.8 kb/s
  176. Count of elements                        : 5452
  177. Stream size                              : 61.2 MiB (1%)
  178. Title                                    : 西班牙字幕
  179. Language                                 : Spanish
  180. Default                                  : No
  181. Forced                                   : No
  182. Text #7
  183. ID                                       : 11
  184. Format                                   : PGS
  185. Muxing mode                              : zlib
  186. Codec ID                                 : S_HDMV/PGS
  187. Codec ID/Info                            : Picture based subtitle format used on BDs/HD-DVDs
  188. Duration                                 : 2 h 39 min
  189. Bit rate                                 : 48.9 kb/s
  190. Count of elements                        : 5442
  191. Stream size                              : 55.7 MiB (1%)
  192. Title                                    : 简中字幕
  193. Language                                 : Chinese
  194. Default                                  : No
  195. Forced                                   : No
  196. Text #8
  197. ID                                       : 12
  198. Format                                   : PGS
  199. Muxing mode                              : zlib
  200. Codec ID                                 : S_HDMV/PGS
  201. Codec ID/Info                            : Picture based subtitle format used on BDs/HD-DVDs
  202. Duration                                 : 2 h 39 min
  203. Bit rate                                 : 49.7 kb/s
  204. Count of elements                        : 5442
  205. Stream size                              : 56.6 MiB (1%)
  206. Title                                    : 繁中字幕
  207. Language                                 : Chinese
  208. Default                                  : No
  209. Forced                                   : No
  210. Menu
  211. 00:00:00.000                             : :第 01 章
  212. 00:06:18.878                             : :第 02 章
  213. 00:14:27.283                             : :第 03 章
  214. 00:17:38.932                             : :第 04 章
  215. 00:24:19.291                             : :第 05 章
  216. 00:31:34.142                             : :第 06 章
  217. 00:36:32.440                             : :第 07 章
  218. 00:42:18.160                             : :第 08 章
  219. 00:49:14.493                             : :第 09 章
  220. 00:55:50.930                             : :第 10 章
  221. 01:01:01.866                             : :第 11 章
  222. 01:06:51.424                             : :第 12 章
  223. 01:12:11.952                             : :第 13 章
  224. 01:17:48.580                             : :第 14 章
  225. 01:21:38.643                             : :第 15 章
  226. 01:29:41.834                             : :第 16 章
  227. 01:36:57.937                             : :第 17 章
  228. 01:43:32.623                             : :第 18 章
  229. 01:49:55.714                             : :第 19 章
  230. 01:56:02.330                             : :第 20 章
  231. 02:01:20.982                             : :第 21 章
  232. 02:07:19.882                             : :第 22 章
  233. 02:14:15.338                             : :第 23 章
  234. 02:21:36.070                             : :第 24 章
  235. 02:28:03.207                             : :第 25 章
  236. 02:34:35.307                             : :第 26 章
  237. 02:39:27.057                             : :第 27 章





此处一般会放置磁力链或种子下载链接,不过此链接需要注册会员才能看到,点击“立即注册”
磁力链下载【下载链接仅对注册会员开放,登陆后可见】
BT9527电影天堂 1、BT9527电影天堂提供的BT文件均来源于互联网抓取,只供网友学习交流、技术提升使用。
2、我们遵守BitTorrent点对点协议原则,任何版权问题请联系原资源发布商,我们不处理任何版权纠纷,谢谢!如有争议请联系邮箱:BT9527#hotmail.com(#换成@)
3、如果您发现某页面或地址有错误,请联系站长邮箱BT9527#hotmail.com(#换成@),我们会尽快处理。您的热心是对BT9527电影天堂最大的支持。
4、本站建议去正规影院观看电影以支持电影行业发展。
最新回复 (2)

你可以在 登录 or 注册 后,对此帖发表评论!

返回