副作用[简英字幕].Side.Effects.2013.BluRay.1080p.x265.10bit-MiniHD 5.18GB

版主小s 4天前 43

✔资源类型:暂未分类   ✔电影年份:2013   ✔电影地区:欧美   ✔电影分类:剧情

◎译  名 副作用 / 谜离药谎(港) / 药命关系(台) / 苦药丸 / 苦果 / The Bitter Pill
◎片  名 Side Effects
◎年  代 2013
◎产  地 美国
◎类  别 剧情 / 惊悚 / 犯罪
◎语  言 英语 / 法语
◎上映日期 2013-02-08(美国)
◎IMDb链接 https://www.imdb.com/title/tt2053463/
◎豆瓣评分 7.4/10 (48885人评价)
◎豆瓣链接 https://movie.douban.com/subject/10438691/
◎片  长 106分钟
◎导  演 史蒂文·索德伯格 Steven Soderbergh (id:1054400)
◎编  剧 斯科特·Z·本恩斯 Scott Z. Burns (id:1309637)
◎演  员 裘德·洛 Jude Law (id:1010510)
       鲁妮·玛拉 Rooney Mara (id:1274969)
       查宁·塔图姆 Channing Tatum (id:1031224)
       凯瑟琳·泽塔-琼斯 Catherine Zeta-Jones (id:1056058)
       凡妮莎·肖 Vinessa Shaw (id:1009320)
       马琳·爱尔兰 Marin Ireland (id:1317472)
       波利·德雷珀 Polly Draper (id:1018226)
       哈拉尔多·阿尔瓦雷斯 Haraldo Alvarez (id:1328826)
       詹姆斯·马丁内斯 James Martinez (id:1276140)
       大卫·科斯塔贝尔 David Costabile (id:1316077)
       麦米·古默 Mamie Gummer (id:1022716)
       玛瑞安娜·克拉瓦诺 Mariana Klaveno (id:1315984)
       斯科特· 谢泼德 Scott Shepherd (id:1353968)
       迈克尔·内森森 Michael Nathanson (id:1376508)
       托马斯·纽曼 Thomas Newman (id:1027939)
       史蒂文·索德伯格 Steven Soderbergh (id:1054400)
       史蒂文·索德伯格 Steven Soderbergh (id:1054400)

◎简  介
  四年前,丈夫Martin(查宁·塔图姆 Channing Tatum 饰)的入狱让Emily(鲁妮·玛拉 Rooney Mara 饰)陷入了忧郁之中。如今Martin出狱了,Emily的忧郁并没有减少,反而企图在停车场开车自杀。自杀未遂后,医生Jon(裘德·洛 Jude Law 饰)开始对她进行治疗。Jon了解到Emily以前的医生是Siebert,便找Siebert了解了一些情况。Jon给Emily开了几种治忧郁症的药,似乎都没作用。Emily提出让她服用一种叫Ablixa的药,是她的同事Julia向她推荐的。服用了这种新药之后,Emily病情有所好转,却开始梦游。Jon告诉她,梦游是服用这种药的副作用。一天晚上,Martin回到家中,发现Emily在厨房梦游,Emily更拿着刀刺中了Martin。Martin死亡,法院判处Emily无罪,但她必须...

◎获奖情况 (共1项)
  第63届柏林国际电影节 (2013)
  金熊奖 最佳影片(提名)
   └──史蒂文·索德伯格 (id:1054400)

  1. ##### MediaInfo ######
  2. General
  3. Unique ID                                : 143455208224496642372804519438790730653 (0x6BEC77D6B2C5442B167EBA2F3E94A39D)
  4. Complete name                            : Side.Effects.2013.BluRay.1080p.x265.10bit-MiniHD.mkv
  5. Format                                   : Matroska
  6. Format version                           : Version 4
  7. File size                                : 5.18 GiB
  8. Duration                                 : 1 h 46 min
  9. Overall bit rate                         : 6 970 kb/s
  10. Encoded date                             : UTC 2018-09-19 08:19:41
  11. Writing application                      : mkvmerge v25.0.0 ('Prog Noir') 64-bit
  12. Writing library                          : libebml v1.3.6 + libmatroska v1.4.9
  13. Video
  14. ID                                       : 1
  15. Format                                   : HEVC
  16. Format/Info                              : High Efficiency Video Coding
  17. Format profile                           : Main 10@L4@Main
  18. Codec ID                                 : V_MPEGH/ISO/HEVC
  19. Duration                                 : 1 h 46 min
  20. Bit rate                                 : 6 283 kb/s
  21. Width                                    : 1 920 pixels
  22. Height                                   : 1 040 pixels
  23. Display aspect ratio                     : 1.85:1
  24. Frame rate mode                          : Constant
  25. Frame rate                               : 23.976 (24000/1001/53354) FPS
  26. Color space                              : YUV
  27. Chroma subsampling                       : 4:2:0
  28. Bit depth                                : 10 bits
  29. Bits/(Pixel*Frame)                       : 0.131
  30. Stream size                              : 4.67 GiB (90%)
  31. Writing library                          : x265 2.8+1-478bfe2b7673:[Windows][GCC 7.3.0][64 bit] 10bit
  32. Encoding settings                        : cpuid=533541111039 / frame-threads=4 / numa-pools=16 / wpp / no-pmode / no-pme / no-psnr / no-ssim / log-level=2 / csv / csv-log-level=0 / input-csp=1 / input-res=1920x1040 / interlace=0 / total-frames=153027 / level-idc=0 / high-tier=1 / uhd-bd=0 / ref=5 / no-allow-non-conformance / no-repeat-headers / annexb / no-aud / no-hrd / info / hash=0 / no-temporal-layers / no-open-gop / min-keyint=1 / keyint=360 / gop-lookahead=0 / bframes=8 / b-adapt=2 / b-pyramid / bframe-bias=0 / rc-lookahead=60 / lookahead-slices=4 / NTMzNTQ=uuDQuD2mJt9fsCf / scenecut=40 / radl=0 / no-intra-refresh / ctu=32 / min-cu-size=8 / no-rect / no-amp / max-tu-size=16 / tu-inter-depth=2 / tu-intra-depth=2 / limit-tu=4 / rdoq-level=1 / dynamic-rd=0.00 / no-ssim-rd / signhide / no-tskip / nr-intra=0 / nr-inter=0 / no-constrained-intra / no-strong-intra-smoothing / max-merge=3 / limit-refs=2 / limit-modes / me=3 / subme=5 / merange=25 / temporal-mvp / weightp / weightb / no-analyze-src-pics / deblock=-1:-1 / no-sao / no-sao-non-deblock / rd=4 / no-early-skip / no-rskip / no-fast-intra / no-tskip-fast / no-cu-lossless / b-intra / no-splitrd-skip / rdpenalty=1 / psy-rd=2.00 / psy-rdoq=5.00 / no-rd-refine / no-lossless / cbqpoffs=-2 / crqpoffs=-2 / rc=crf / crf=18.0 / qcomp=0.65 / qpstep=4 / stats-write=0 / stats-read=0 / ipratio=1.40 / pbratio=1.30 / aq-mode=2 / aq-strength=0.90 / cutree / zone-count=0 / no-strict-cbr / qg-size=16 / no-rc-grain / qpmax=69 / qpmin=0 / no-const-vbv / sar=0 / overscan=0 / videoformat=5 / range=0 / colorprim=1 / transfer=2 / colormatrix=2 / chromaloc=0 / display-window=0 / max-cll=0,0 / min-luma=0 / max-luma=1023 / log2-max-poc-lsb=8 / vui-timing-info / vui-hrd-info / slices=1 / no-opt-qp-pps / no-opt-ref-list-length-pps / no-multi-pass-opt-rps / scenecut-bias=0.05 / no-opt-cu-delta-qp / no-aq-motion / no-hdr / no-hdr-opt / no-dhdr10-opt / no-idr-recovery-sei / analysis-reuse-level=5 / scale-factor=0 / refine-intra=0 / refine-inter=0 / refine-mv=0 / no-limit-sao / ctu-info=0 / no-lowpass-dct / refine-mv-type=0 / copy-pic=1 / max-ausize-factor=1.0 / no-dynamic-refine / no-single-sei
  33. Default                                  : Yes
  34. Forced                                   : No
  35. Color range                              : Limited
  36. Color primaries                          : BT.709
  37. Audio
  38. ID                                       : 2
  39. Format                                   : AC-3
  40. Format/Info                              : Audio Coding 3
  41. Commercial name                          : Dolby Digital
  42. Codec ID                                 : A_AC3
  43. Duration                                 : 1 h 46 min
  44. Bit rate mode                            : Constant
  45. Bit rate                                 : 640 kb/s
  46. Channel(s)                               : 6 channels
  47. Channel layout                           : L R C LFE Ls Rs
  48. Sampling rate                            : 48.0 kHz
  49. Frame rate                               : 31.250 FPS (1536 SPF)
  50. Compression mode                         : Lossy
  51. Stream size                              : 487 MiB (9%)
  52. Language                                 : English
  53. Service kind                             : Complete Main
  54. Default                                  : Yes
  55. Forced                                   : No
  56. Text #1
  57. ID                                       : 3
  58. Format                                   : PGS
  59. Muxing mode                              : zlib
  60. Codec ID                                 : S_HDMV/PGS
  61. Codec ID/Info                            : Picture based subtitle format used on BDs/HD-DVDs
  62. Duration                                 : 1 h 39 min
  63. Bit rate                                 : 22.7 kb/s
  64. Count of elements                        : 2957
  65. Stream size                              : 16.2 MiB (0%)
  66. Language                                 : English
  67. Default                                  : Yes
  68. Forced                                   : No
  69. Text #2
  70. ID                                       : 4
  71. Format                                   : PGS
  72. Muxing mode                              : zlib
  73. Codec ID                                 : S_HDMV/PGS
  74. Codec ID/Info                            : Picture based subtitle format used on BDs/HD-DVDs
  75. Duration                                 : 1 h 42 min
  76. Bit rate                                 : 42.9 kb/s
  77. Count of elements                        : 2971
  78. Stream size                              : 31.4 MiB (1%)
  79. Title                                    : 简英
  80. Language                                 : Chinese
  81. Default                                  : No
  82. Forced                                   : No
  83. Text #3
  84. ID                                       : 5
  85. Format                                   : PGS
  86. Muxing mode                              : zlib
  87. Codec ID                                 : S_HDMV/PGS
  88. Codec ID/Info                            : Picture based subtitle format used on BDs/HD-DVDs
  89. Duration                                 : 1 h 42 min
  90. Bit rate                                 : 24.5 kb/s
  91. Count of elements                        : 2971
  92. Stream size                              : 17.9 MiB (0%)
  93. Title                                    : 简中
  94. Language                                 : Chinese
  95. Default                                  : No
  96. Forced                                   : No
  97. Menu
  98. 00:00:00.000                             : en:Chapter 01 / en:第 01 章
  99. 00:05:24.324                             : en:Chapter 02
  100. 00:07:59.437                             : en:Chapter 03
  101. 00:13:06.452                             : en:Chapter 04
  102. 00:18:22.935                             : en:Chapter 05
  103. 00:23:39.334                             : en:Chapter 06
  104. 00:30:36.960                             : en:Chapter 07
  105. 00:34:43.539                             : en:Chapter 08
  106. 00:37:39.632                             : en:Chapter 09
  107. 00:44:33.921                             : en:Chapter 10
  108. 00:51:34.716                             : en:Chapter 11
  109. 00:58:22.999                             : en:Chapter 12
  110. 01:03:43.152                             : en:Chapter 13
  111. 01:09:26.996                             : en:Chapter 14
  112. 01:15:53.423                             : en:Chapter 15
  113. 01:21:20.292                             : en:Chapter 16
  114. 01:26:27.765                             : en:Chapter 17
  115. 01:34:25.159                             : en:Chapter 18
  116. 01:38:37.745                             : en:Chapter 19
  117. 01:43:27.618                             : en:Chapter 20





此处一般会放置磁力链或种子下载链接,不过此链接需要注册会员才能看到,点击“立即注册”
磁力链下载【下载链接仅对注册会员开放,登陆后可见】
BT9527电影天堂 1、BT9527电影天堂提供的BT文件均来源于互联网抓取,只供网友学习交流、技术提升使用。
2、我们遵守BitTorrent点对点协议原则,任何版权问题请联系原资源发布商,我们不处理任何版权纠纷,谢谢!如有争议请联系邮箱:BT9527#hotmail.com(#换成@)
3、如果您发现某页面或地址有错误,请联系站长邮箱BT9527#hotmail.com(#换成@),我们会尽快处理。您的热心是对BT9527电影天堂最大的支持。
4、本站建议去正规影院观看电影以支持电影行业发展。
最新回复 (0)

你可以在 登录 or 注册 后,对此帖发表评论!

返回
发新帖