杰出公民[简繁字幕].The.Distinguished.Citizen.2016.BluRay.1080p.DTS-HD.MA5.1.x265.10bit-ALT 13.22GB

版主小s 10天前 44

✔资源类型:暂未分类   ✔电影年份:2016   ✔电影地区:其他   ✔电影分类:剧情

◎译  名 杰出公民 / 玩谢大作家(港) / 超荣誉市民(台) / The Distinguished Citizen
◎片  名 El ciudadano ilustre
◎年  代 2016
◎产  地 阿根廷 / 西班牙
◎类  别 剧情 / 喜剧
◎语  言 西班牙语
◎上映日期 2016-09-04(威尼斯电影节) / 2016-09-08(阿根廷)
◎IMDb链接 https://www.imdb.com/title/tt4562518/
◎豆瓣评分 8.4/10 (92184人评价)
◎豆瓣链接 https://movie.douban.com/subject/26844922/
◎片  长 118分钟
◎导  演 加斯顿·杜帕拉特 Gastón Duprat (id:1334124)
       马里亚诺·寇恩 Mariano Cohn (id:1038472)
◎编  剧 安德烈斯·杜普拉特 Andrés Duprat (id:1371916)
◎演  员 奥斯卡·马丁内兹 Oscar Martínez (id:1291164)
       达迪·布列瓦 Dady Brieva (id:1034851)
       安德丽娅·弗里杰里奥 Andrea Frigerio (id:1371917)
       诺拉·纳瓦斯 Nora Navas (id:1318873)
       曼努埃尔·维森特 Manuel Vicente (id:1155048)
       马塞洛·丹德烈亚 Marcelo D'Andrea (id:1371918)
       贝伦·沙瓦纳 Belén Chavanne (id:1371919)
       古斯塔沃·加尔松 Gustavo Garzón (id:1093504)
       朱利安·拉基尔·泰拉里尼 Julián Larquier Tellarini (id:1371920)
       艾玛·里维拉 Emma Rivera (id:1371921)
       尼古拉斯·德·特蕾西 Nicolás de Tracy (id:1371922)
       丹尼尔·卡尔吉曼 Daniel Kargieman (id:1371924)
       亚历克西斯·洛佩兹·科斯塔 Alexis López Costa (id:1371925)
       莱昂纳多·穆里亚 Leonardo Murija (id:1371926)
       佩德罗·罗斯 Pedro Roth (id:1371927)
       马里亚诺·寇恩 Mariano Cohn (id:1038472)
       加斯顿·杜帕拉特 Gastón Duprat (id:1334124)
       加斯顿·杜帕拉特 Gastón Duprat (id:1334124)
       马里亚诺·寇恩 Mariano Cohn (id:1038472)

◎简  介
  小说家丹尼尔(奥斯卡·马丁内兹 Oscar Martínez 饰)从刚出道起事业就顺风顺水,如今更是获得了诺贝尔文学奖的殊荣,攀登上了职业的顶峰,然而这荣誉却并未带给他满足,恰恰相反,丹尼尔担心名声和财富会夺走他文学创作上的灵感与锋芒。                                    
                                一晃眼五年过去,丹尼尔热度不减,邀约和奖项不断,可冷淡而又避世的他只教助手一一回绝。一封来自小镇萨拉斯的信吸引了丹尼尔的注意,萨拉斯是他阔别已久的故乡,如今邀请他踏上故土,接受“杰出公民”的奖项,在未告知媒体和朋友们的情况下,丹尼尔独自踏上了返乡的旅途,在那里,他再度见到了曾经的恋人艾琳(安德丽娅·弗里杰里奥 Andrea Frigerio 饰),如今的艾琳早已经嫁为人妻,而她的丈夫正是丹尼尔的旧友安东尼奥(达迪·布列瓦 Dady Brieva 饰)。

◎获奖情况 (共4项)
  第73届威尼斯电影节 (2016)
  主竞赛单元 金狮奖 (提名)
  沃尔皮杯 最佳男演员
   └──奥斯卡·马丁内兹 (id:1291164)

  第31届西班牙戈雅奖 (2017)
  最佳伊比利亚美洲电影

  第4届豆瓣电影年度榜单 (2017)
  评分最高的外语电影(提名)

  1. ##### MediaInfo ######
  2. General
  3. Unique ID                                : 170209709791436360395600923387693508190 (0x800D329BE54966A7C7084C8BC8FE265E)
  4. Complete name                            : The.Distinguished.Citizen.2016.BluRay.1080p.DTS-HD.MA5.1.x265.10bit-ALT.mkv
  5. Format                                   : Matroska
  6. Format version                           : Version 4
  7. File size                                : 13.2 GiB
  8. Duration                                 : 1 h 57 min
  9. Overall bit rate mode                    : Variable
  10. Overall bit rate                         : 16.1 Mb/s
  11. Encoded date                             : UTC 2022-06-20 03:44:22
  12. Writing application                      : mkvmerge v49.0.0 ('Sick Of Losing Soulmates') 64-bit
  13. Writing library                          : libebml v1.4.0 + libmatroska v1.6.1
  14. Video
  15. ID                                       : 1
  16. Format                                   : HEVC
  17. Format/Info                              : High Efficiency Video Coding
  18. Format profile                           : Main 10@L5.1@High
  19. Codec ID                                 : V_MPEGH/ISO/HEVC
  20. Duration                                 : 1 h 57 min
  21. Bit rate                                 : 13.7 Mb/s
  22. Width                                    : 1 920 pixels
  23. Height                                   : 1 038 pixels
  24. Display aspect ratio                     : 1.85:1
  25. Frame rate mode                          : Constant
  26. Frame rate                               : 24.000 FPS
  27. Color space                              : YUV
  28. Chroma subsampling                       : 4:2:0
  29. Bit depth                                : 10 bits
  30. Bits/(Pixel*Frame)                       : 0.286
  31. Stream size                              : 11.2 GiB (85%)
  32. Title                                    : HEVC, x265Main10@L5.1@High, 24 fps @13657 kbps
  33. Writing library                          : x265 3.5+36-1f2c8da77:[Windows][GCC 11.2.0][64 bit] 10bit
  34. Encoding settings                        : cpuid=533541049583 / frame-threads=2 / numa-pools=4 / wpp / no-pmode / no-pme / no-psnr / no-ssim / log-level=2 / input-csp=1 / input-res=1920x1038 / interlace=0 / total-frames=169420 / level-idc=51 / high-tier=1 / uhd-bd=0 / ref=5 / no-allow-non-conformance / no-repeat-headers / annexb / no-aud / no-eob / no-eos / no-hrd / info / hash=0 / no-temporal-layers / open-gop / min-keyint=24 / keyint=240 / gop-lookahead=0 / bframes=6 / b-adapt=2 / b-pyramid / bframe-bias=0 / rc-lookahead=40 / lookahead-slices=0 / NTMzNTQ=uuDQuD2mJt9fsCf / scenecut=40 / no-hist-scenecut / radl=0 / no-splice / no-intra-refresh / ctu=32 / min-cu-size=8 / no-rect / no-amp / max-tu-size=32 / tu-inter-depth=3 / tu-intra-depth=3 / limit-tu=4 / rdoq-level=2 / dynamic-rd=0.00 / no-ssim-rd / signhide / no-tskip / nr-intra=0 / nr-inter=0 / no-constrained-intra / no-strong-intra-smoothing / max-merge=4 / limit-refs=1 / limit-modes / me=3 / subme=4 / merange=25 / temporal-mvp / no-frame-dup / no-hme / weightp / weightb / no-analyze-src-pics / deblock=-3:-3 / no-sao / no-sao-non-deblock / rd=6 / selective-sao=0 / no-early-skip / rskip / no-fast-intra / no-tskip-fast / no-cu-lossless / b-intra / no-splitrd-skip / rdpenalty=0 / psy-rd=2.00 / psy-rdoq=1.00 / no-rd-refine / no-lossless / cbqpoffs=-2 / crqpoffs=-2 / rc=crf / crf=17.0 / qcomp=0.65 / qpstep=4 / stats-write=0 / stats-read=0 / vbv-maxrate=80000 / vbv-bufsize=80000 / vbv-init=0.9 / min-vbv-fullness=50.0 / max-vbv-fullness=80.0 / crf-max=0.0 / crf-min=0.0 / ipratio=1.40 / pbratio=1.30 / aq-mode=2 / aq-strength=0.85 / cutree / zone-count=0 / no-strict-cbr / qg-size=32 / no-rc-grain / qpmax=69 / qpmin=0 / no-const-vbv / sar=1 / overscan=0 / videoformat=5 / range=0 / colorprim=1 / transfer=1 / colormatrix=1 / chromaloc=0 / display-window=0 / cll=0,0 / min-luma=0 / max-luma=1023 / log2-max-poc-lsb=8 / vui-timing-info / vui-hrd-info / slices=1 / no-opt-qp-pps / no-opt-ref-list-length-pps / no-multi-pass-opt-rps / scenecut-bias=0.05 / hist-threshold=0.03 / no-opt-cu-delta-qp / no-aq-motion / no-hdr10 / no-hdr10-opt / no-dhdr10-opt / no-idr-recovery-sei / analysis-reuse-level=0 / analysis-save-reuse-level=0 / analysis-load-reuse-level=0 / scale-factor=0 / refine-intra=0 / refine-inter=0 / refine-mv=1 / refine-ctu-distortion=0 / no-limit-sao / ctu-info=0 / no-lowpass-dct / refine-analysis-type=0 / copy-pic=1 / max-ausize-factor=1.0 / no-dynamic-refine / no-single-sei / no-hevc-aq / no-svt / no-field / qp-adaptation-range=1.00 / scenecut-aware-qp=0conformance-window-offsets / right=0 / bottom=0 / NTMzNTQ= / decoder-max-rate=0 / no-vbv-live-multi-pass
  35. Language                                 : English
  36. Default                                  : Yes
  37. Forced                                   : No
  38. Color range                              : Limited
  39. Color primaries                          : BT.709
  40. Transfer characteristics                 : BT.709
  41. Matrix coefficients                      : BT.709
  42. Audio
  43. ID                                       : 2
  44. Format                                   : DTS XLL
  45. Format/Info                              : Digital Theater Systems
  46. Commercial name                          : DTS-HD Master Audio
  47. Codec ID                                 : A_DTS
  48. Duration                                 : 1 h 57 min
  49. Bit rate mode                            : Variable
  50. Bit rate                                 : 2 303 kb/s
  51. Channel(s)                               : 6 channels
  52. Channel layout                           : C L R Ls Rs LFE
  53. Sampling rate                            : 48.0 kHz
  54. Frame rate                               : 93.750 FPS (512 SPF)
  55. Bit depth                                : 16 bits
  56. Compression mode                         : Lossless
  57. Stream size                              : 1.89 GiB (14%)
  58. Title                                    : Spanish DTS-HD Master Audio 5.1 @ 2303 kbps
  59. Language                                 : Spanish
  60. Default                                  : Yes
  61. Forced                                   : No
  62. Text #1
  63. ID                                       : 3
  64. Format                                   : PGS
  65. Codec ID                                 : S_HDMV/PGS
  66. Codec ID/Info                            : Picture based subtitle format used on BDs/HD-DVDs
  67. Duration                                 : 1 h 50 min
  68. Bit rate                                 : 46.5 kb/s
  69. Count of elements                        : 3038
  70. Stream size                              : 36.6 MiB (0%)
  71. Title                                    : Spa/SUP
  72. Language                                 : Spanish
  73. Default                                  : No
  74. Forced                                   : No
  75. Text #2
  76. ID                                       : 4
  77. Format                                   : PGS
  78. Codec ID                                 : S_HDMV/PGS
  79. Codec ID/Info                            : Picture based subtitle format used on BDs/HD-DVDs
  80. Duration                                 : 1 h 50 min
  81. Bit rate                                 : 39.6 kb/s
  82. Count of elements                        : 3204
  83. Stream size                              : 31.2 MiB (0%)
  84. Title                                    : Chs/SUP  简体
  85. Language                                 : Chinese
  86. Default                                  : Yes
  87. Forced                                   : No
  88. Text #3
  89. ID                                       : 5
  90. Format                                   : PGS
  91. Codec ID                                 : S_HDMV/PGS
  92. Codec ID/Info                            : Picture based subtitle format used on BDs/HD-DVDs
  93. Duration                                 : 1 h 50 min
  94. Bit rate                                 : 43.3 kb/s
  95. Count of elements                        : 3204
  96. Stream size                              : 34.1 MiB (0%)
  97. Title                                    : Cht/SUP  繁体
  98. Language                                 : Chinese
  99. Default                                  : No
  100. Forced                                   : No
  101. Menu
  102. 00:00:00.000                             : en:第 01 章
  103. 00:07:36.750                             : en:第 02 章
  104. 00:17:27.042                             : en:第 03 章
  105. 00:27:53.250                             : en:第 04 章
  106. 00:38:12.417                             : en:第 05 章
  107. 00:47:02.917                             : en:第 06 章
  108. 00:56:36.667                             : en:第 07 章
  109. 01:05:35.292                             : en:第 08 章
  110. 01:18:00.042                             : en:第 09 章
  111. 01:27:32.042                             : en:第 10 章
  112. 01:36:41.750                             : en:第 11 章
  113. 01:49:15.583                             : en:第 12 章





此处一般会放置磁力链或种子下载链接,不过此链接需要注册会员才能看到,点击“立即注册”
磁力链下载【下载链接仅对注册会员开放,登陆后可见】
BT9527电影天堂 1、BT9527电影天堂提供的BT文件均来源于互联网抓取,只供网友学习交流、技术提升使用。
2、我们遵守BitTorrent点对点协议原则,任何版权问题请联系原资源发布商,我们不处理任何版权纠纷,谢谢!如有争议请联系邮箱:BT9527#hotmail.com(#换成@)
3、如果您发现某页面或地址有错误,请联系站长邮箱BT9527#hotmail.com(#换成@),我们会尽快处理。您的热心是对BT9527电影天堂最大的支持。
4、本站建议去正规影院观看电影以支持电影行业发展。
最新回复 (0)

你可以在 登录 or 注册 后,对此帖发表评论!

返回
发新帖