恐怖地窖[简繁英字幕].The.Cellar.2022.1080p.BluRay.DTS.x265-10bit-ENTHD 4.88GB

版主小s 3月前 181

✔资源类型:暂未分类   ✔电影年份:2022   ✔电影地区:其他   ✔电影分类:恐怖

◎译  名 恐怖地窖
◎片  名 The Cellar
◎年  代 2022
◎产  地 爱尔兰 / 比利时 / 美国
◎类  别 恐怖
◎语  言 英语
◎上映日期 2022-03-12(西南偏南电影节) / 2022-03-25(爱尔兰)
◎IMDb链接 https://www.imdb.com/title/tt14550642/
◎豆瓣评分 5.6/10 (1582人评价)
◎豆瓣链接 https://movie.douban.com/subject/35251055/
◎片  长 94分钟
◎演  员 伊丽莎·库斯伯特 Elisha Cuthbert (id:1003486)
       欧文·马肯 Eoin Macken (id:1313436)
       狄龙·菲茨莫里斯·布雷迪 Dylan Fitzmaurice Brady (id:1472695)
       艾比·菲茨 Abby Fitz (id:1472544)
       Tara Lee Tara Lee (id:1444668)
       肖恩·多耶尔 Seán Doyle (id:1266565)
       克里斯·麦克哈利姆 Chris McHallem (id:1342341)
       斯蒂夫·根恩 Steve Gunn (id:1363026)

◎简  介
  凯拉·伍兹(Elisha Cuthbert饰)的女儿神秘地消失在他们乡下新房子的地窖里,然而凯拉很快发现,有一个古老而强大的恶魔控制着他们的家,她将不得不面对或冒着永远失去家人灵魂的风险。与卡斯伯特一起最后与宇宙中最古老的邪恶作斗争,否则将永远失去家人的灵魂。
  1. ##### MediaInfo ######
  2. General
  3. Unique ID                                : 230991746884342365526947671686713613538 (0xADC76468BB743D655ED92F1BD9DA9CE2)
  4. Complete name                            : The.Cellar.2022.1080p.BluRay.DTS.x265-10bit-ENTHD.mkv
  5. Format                                   : Matroska
  6. Format version                           : Version 4
  7. File size                                : 4.88 GiB
  8. Duration                                 : 1 h 34 min
  9. Overall bit rate                         : 7 409 kb/s
  10. Movie name                               : The Cellar 2022 1080p BluRay DTS x265-10bit-HDS
  11. Encoded date                             : UTC 2022-06-19 22:33:58
  12. Writing application                      : mkvmerge v68.0.0 ('The Curtain') 64-bit
  13. Writing library                          : libebml v1.4.2 + libmatroska v1.6.4 / Lavf59.17.101
  14. Video
  15. ID                                       : 1
  16. Format                                   : HEVC
  17. Format/Info                              : High Efficiency Video Coding
  18. Format profile                           : Main 10@L5.1@High
  19. Codec ID                                 : V_MPEGH/ISO/HEVC
  20. Duration                                 : 1 h 34 min
  21. Bit rate                                 : 5 841 kb/s
  22. Width                                    : 1 920 pixels
  23. Height                                   : 804 pixels
  24. Display aspect ratio                     : 2.40:1
  25. Frame rate mode                          : Constant
  26. Frame rate                               : 23.976 (24000/1001/53354) FPS
  27. Color space                              : YUV
  28. Chroma subsampling                       : 4:2:0
  29. Bit depth                                : 10 bits
  30. Bits/(Pixel*Frame)                       : 0.158
  31. Stream size                              : 3.85 GiB (79%)
  32. Title                                    : GalenMao@HDSky
  33. Default                                  : No
  34. Forced                                   : No
  35. Audio
  36. ID                                       : 2
  37. Format                                   : DTS
  38. Format/Info                              : Digital Theater Systems
  39. Codec ID                                 : A_DTS
  40. Duration                                 : 1 h 34 min
  41. Bit rate mode                            : Constant
  42. Bit rate                                 : 1 509 kb/s
  43. Channel(s)                               : 6 channels
  44. Channel layout                           : C L R Ls Rs LFE
  45. Sampling rate                            : 48.0 kHz
  46. Frame rate                               : 93.750 FPS (512 SPF)
  47. Bit depth                                : 24 bits
  48. Compression mode                         : Lossy
  49. Stream size                              : 1 018 MiB (20%)
  50. Title                                    : English
  51. Language                                 : English
  52. Default                                  : Yes
  53. Forced                                   : No
  54. Text #1
  55. ID                                       : 3
  56. Format                                   : PGS
  57. Muxing mode                              : zlib
  58. Codec ID                                 : S_HDMV/PGS
  59. Codec ID/Info                            : Picture based subtitle format used on BDs/HD-DVDs
  60. Duration                                 : 1 h 28 min
  61. Bit rate                                 : 27.7 kb/s
  62. Count of elements                        : 2178
  63. Stream size                              : 17.6 MiB (0%)
  64. Title                                    : ENG
  65. Language                                 : English
  66. Default                                  : Yes
  67. Forced                                   : No
  68. Text #2
  69. ID                                       : 4
  70. Format                                   : PGS
  71. Muxing mode                              : zlib
  72. Codec ID                                 : S_HDMV/PGS
  73. Codec ID/Info                            : Picture based subtitle format used on BDs/HD-DVDs
  74. Duration                                 : 1 h 26 min
  75. Bit rate                                 : 19.6 kb/s
  76. Count of elements                        : 1181
  77. Stream size                              : 12.1 MiB (0%)
  78. Title                                    : CHS
  79. Language                                 : Chinese
  80. Default                                  : Yes
  81. Forced                                   : No
  82. Text #3
  83. ID                                       : 5
  84. Format                                   : PGS
  85. Muxing mode                              : zlib
  86. Codec ID                                 : S_HDMV/PGS
  87. Codec ID/Info                            : Picture based subtitle format used on BDs/HD-DVDs
  88. Duration                                 : 1 h 26 min
  89. Bit rate                                 : 20.2 kb/s
  90. Count of elements                        : 1181
  91. Stream size                              : 12.5 MiB (0%)
  92. Title                                    : CHT
  93. Language                                 : Chinese
  94. Default                                  : Yes
  95. Forced                                   : No
  96. Text #4
  97. ID                                       : 6
  98. Format                                   : PGS
  99. Muxing mode                              : zlib
  100. Codec ID                                 : S_HDMV/PGS
  101. Codec ID/Info                            : Picture based subtitle format used on BDs/HD-DVDs
  102. Duration                                 : 1 h 26 min
  103. Bit rate                                 : 28.0 kb/s
  104. Count of elements                        : 1181
  105. Stream size                              : 17.3 MiB (0%)
  106. Title                                    : CHS&ENG
  107. Language                                 : Chinese
  108. Default                                  : Yes
  109. Forced                                   : No
  110. Text #5
  111. ID                                       : 7
  112. Format                                   : PGS
  113. Muxing mode                              : zlib
  114. Codec ID                                 : S_HDMV/PGS
  115. Codec ID/Info                            : Picture based subtitle format used on BDs/HD-DVDs
  116. Duration                                 : 1 h 26 min
  117. Bit rate                                 : 28.8 kb/s
  118. Count of elements                        : 1181
  119. Stream size                              : 17.8 MiB (0%)
  120. Title                                    : CHT&ENG
  121. Language                                 : Chinese
  122. Default                                  : Yes
  123. Forced                                   : No
  124. Menu
  125. 00:00:00.000                             : en:第 01 章
  126. 00:09:34.240                             : en:第 02 章
  127. 00:19:54.068                             : en:第 03 章
  128. 00:27:13.757                             : en:第 04 章
  129. 00:39:46.467                             : en:第 05 章
  130. 00:51:40.431                             : en:第 06 章
  131. 01:00:59.489                             : en:第 07 章
  132. 01:09:36.881                             : en:第 08 章
  133. 01:26:37.984                             : en:第 09 章





此处一般会放置磁力链或种子下载链接,不过此链接需要注册会员才能看到,点击“立即注册”
磁力链下载【下载链接仅对注册会员开放,登陆后可见】
BT9527电影天堂 1、BT9527电影天堂提供的BT文件均来源于互联网抓取,只供网友学习交流、技术提升使用。
2、我们遵守BitTorrent点对点协议原则,任何版权问题请联系原资源发布商,我们不处理任何版权纠纷,谢谢!如有争议请联系邮箱:BT9527#hotmail.com(#换成@)
3、如果您发现某页面或地址有错误,请联系站长邮箱BT9527#hotmail.com(#换成@),我们会尽快处理。您的热心是对BT9527电影天堂最大的支持。
4、本站建议去正规影院观看电影以支持电影行业发展。
最新回复 (0)

你可以在 登录 or 注册 后,对此帖发表评论!

返回
发新帖